<?xml version="1.0" standalone="no"?>
<!DOCTYPE svg PUBLIC "-//W3C//DTD SVG 1.1//EN" "http://www.w3.org/Graphics/SVG/1.1/DTD/svg11.dtd" >
<svg xmlns="http://www.w3.org/2000/svg">
<metadata>Generated by IcoMoon</metadata>
<defs>
<font id="icomoon" horiz-adv-x="1024">
<font-face units-per-em="1024" ascent="960" descent="-64" />
<missing-glyph horiz-adv-x="1024" />
<glyph unicode="&#x20;" horiz-adv-x="512" d="" />
<glyph unicode="&#xe900;" glyph-name="arr_left_botom" horiz-adv-x="975" d="M208.712 636.961v-326.132l610.591 610.591 142.229-142.229-610.591-610.591h326.132v-201.112h-669.474v669.474z" />
<glyph unicode="&#xe901;" glyph-name="arr_right_tup" horiz-adv-x="975" d="M766.526 259.039v326.132l-610.591-610.591-142.229 142.229 610.591 610.591h-326.132v201.112h669.474v-669.474z" />
<glyph unicode="&#xe903;" glyph-name="card" horiz-adv-x="1536" d="M243.81 923.429h1048.381c94.257 0 170.667-76.41 170.667-170.667v-609.524c0-94.257-76.41-170.667-170.667-170.667h-1048.381c-94.257 0-170.667 76.41-170.667 170.667v609.524c0 94.257 76.41 170.667 170.667 170.667zM292.571 630.857v-146.286h146.286v146.286h-146.286zM292.571 338.286v-73.143h950.857v73.143h-950.857z" />
<glyph unicode="&#xe904;" horiz-adv-x="1518" d="M908.334 148.156l-199.185-199.185v199.208c-115.561 1.678-208.723 95.879-208.723 211.839v358.989c0 117.008 94.854 211.862 211.862 211.862h567.712c117.008 0 211.862-94.854 211.862-211.862v-358.989c0-117.008-94.854-211.862-211.862-211.862h-371.666z" />
<glyph unicode="&#xe905;" horiz-adv-x="1518" d="M1178.777 539.513c0-43.228 35.043-78.271 78.271-78.271s78.271 35.043 78.271 78.271c0 43.228-35.043 78.271-78.271 78.271s-78.271-35.043-78.271-78.271z" />
<glyph unicode="&#xe906;" horiz-adv-x="1518" d="M917.873 539.513c0-43.228 35.043-78.271 78.271-78.271s78.271 35.043 78.271 78.271c0 43.228-35.043 78.271-78.271 78.271s-78.271-35.043-78.271-78.271z" />
<glyph unicode="&#xe907;" horiz-adv-x="1518" d="M656.969 539.513c0-43.228 35.043-78.271 78.271-78.271s78.271 35.043 78.271 78.271c0 43.228-35.043 78.271-78.271 78.271s-78.271-35.043-78.271-78.271z" />
<glyph unicode="&#xe908;" horiz-adv-x="1518" d="M208.772 729.6h201.269v-75.476h-201.269v75.476z" />
<glyph unicode="&#xe909;" horiz-adv-x="1518" d="M108.138 578.648h301.903v-75.476h-301.903v75.476z" />
<glyph unicode="&#xe90a;" horiz-adv-x="1518" d="M7.503 427.697h402.538v-75.476h-402.538v75.476z" />
<glyph unicode="&#xe90b;" horiz-adv-x="951" d="M239.323 69.541c0.283 29.139 0.849 58.279 1.132 87.418 0 6.79 0.849 5.941-5.658 8.77-36.212 14.428-69.878 32.534-99.583 57.996-31.403 26.876-56.015 58.562-74.121 95.622-17.257 35.646-26.876 73.556-32.251 112.597-1.98 15.277-3.112 30.554-3.112 45.831 0 14.428-2.263 28.856-2.546 43.285-0.283 10.185-0.566 20.652-0.283 30.837 0.283 20.935-1.697 41.87-0.849 62.805 1.697 47.528 10.185 93.925 28.856 138.058 26.593 62.805 70.161 110.333 129.571 143.716 44.699 24.896 92.227 40.738 142.585 48.943 31.12 5.092 62.239 7.921 93.642 8.77 37.344 1.132 74.687 0.849 112.314 0.283 48.094-0.566 95.622-5.092 142.302-16.409 44.416-10.468 86.286-27.159 124.762-51.772 46.68-29.705 82.326-69.029 106.373-119.103 14.994-30.837 24.047-63.371 29.988-97.037 4.244-24.896 5.941-49.791 5.658-74.97-0.283-26.593-0.849-53.186-2.546-79.497-1.132-18.106-1.132-36.212-1.98-54.318-3.112-50.074-13.297-98.451-35.363-143.716-27.159-55.45-68.18-97.32-121.933-127.591-44.416-24.896-91.944-40.456-141.736-48.943-39.041-6.507-78.648-9.619-118.255-9.619-24.33 0-48.66 0.283-72.99 0-12.448 0-24.896-0.283-37.344 1.132-3.961 0.283-6.79-0.849-9.336-3.961-19.521-22.632-39.041-45.265-58.844-67.897-24.33-28.008-48.66-56.015-72.707-83.74-2.546-2.829-5.375-5.658-8.487-7.638-7.638-5.092-15.56-2.263-17.54 6.79-0.566 1.98-0.283 4.527-0.283 6.507-0.283 28.856 0.283 57.996 0.566 86.852 0 0 0 0 0 0z" />
<glyph unicode="&#xe90c;" horiz-adv-x="951" d="M200.565 695.895c0.849 34.515 16.691 60.542 45.265 79.214 11.882 7.921 24.896 14.145 39.041 16.974 14.711 3.112 28.856 1.132 41.304-8.204 8.204-5.941 14.994-13.297 21.784-20.652 22.632-24.896 41.87-51.772 57.43-81.76 2.546-5.092 4.809-10.468 6.507-16.126 4.809-16.126 1.132-30.271-9.619-42.719-3.961-4.526-8.487-8.487-13.297-12.165-4.526-3.112-9.053-6.507-13.297-10.468-9.902-9.336-12.731-20.652-9.619-33.666 1.132-5.375 3.112-10.468 5.092-15.277 11.599-25.462 27.159-48.377 47.245-68.18 11.882-11.599 24.613-21.784 38.758-30.554 13.579-8.487 27.159-16.409 42.436-21.784 14.145-5.092 24.896-1.98 34.232 9.902 3.961 5.092 7.356 10.468 11.882 15.277 8.487 9.053 18.106 15.843 30.271 18.672 13.297 3.112 26.027 0.849 38.192-4.526 11.599-4.809 21.784-12.165 31.968-19.238 20.369-14.145 40.173-29.139 59.41-44.699 5.092-4.244 9.619-9.053 13.862-14.428 9.902-13.014 11.882-27.442 7.638-42.719-3.961-14.711-11.316-27.442-20.935-39.041-16.691-20.369-37.061-35.646-62.239-43.85-6.79-2.263-13.579-3.678-20.652-4.244-9.053-0.849-17.54 2.263-26.027 4.809-8.204 2.263-15.843 6.224-23.481 9.619-38.192 16.974-74.97 37.061-109.768 60.259-52.338 34.797-99.017 75.536-139.756 123.347-30.271 35.646-56.581 74.121-78.931 115.426-14.428 26.31-27.159 53.469-37.909 81.477-4.244 12.165-6.79 27.725-6.79 39.324z" />
<glyph unicode="&#xe90d;" horiz-adv-x="951" d="M745.442 580.752c-0.283-9.336 0.849-16.126 0-22.632-1.98-16.126-16.126-24.613-31.12-18.389-9.053 3.678-11.882 11.599-12.731 20.369-0.849 10.75-1.697 21.501-3.395 32.251-5.658 33.1-14.711 65.068-32.534 93.925-13.297 21.501-30.554 39.041-52.055 52.903-24.896 16.126-52.621 25.462-81.477 31.968-12.448 2.829-25.179 5.092-37.909 6.224-3.112 0.283-5.941 0.849-8.77 1.98-8.77 3.112-13.297 9.619-12.731 18.955 1.132 16.409 10.468 22.915 23.198 22.915 48.377 0.849 92.51-11.882 132.966-38.192 23.764-15.56 44.982-33.949 62.522-56.298 33.949-43.285 53.752-92.51 54.035-145.98z" />
<glyph unicode="&#xe90e;" horiz-adv-x="951" d="M672.17 585.845c-0.283-4.809 0.566-11.033-0.849-17.257-1.98-10.468-9.336-16.409-20.369-16.691-11.599-0.283-18.955 4.809-21.501 15.277-1.132 3.961-1.132 8.204-1.697 12.448-1.98 18.955-6.507 37.627-13.862 55.45-10.185 25.462-28.574 42.719-53.752 53.469-17.54 7.356-35.646 12.731-54.318 15.56-5.092 0.849-9.902 1.98-14.428 4.244-2.263 1.132-4.244 2.546-5.658 4.526-6.224 7.638-5.941 15.843-2.546 24.33 2.829 7.638 8.77 11.882 16.974 12.731 6.79 0.849 13.579-0.283 20.369-1.415 18.955-2.829 37.344-7.638 54.884-15.843 22.35-10.75 41.587-25.744 57.996-44.416 13.862-16.126 24.33-33.949 31.12-54.035 4.809-15.56 7.356-31.12 7.638-48.377z" />
<glyph unicode="&#xe90f;" horiz-adv-x="951" d="M601.726 591.22c0-5.658 0-11.316-1.98-16.691-2.829-8.204-8.77-13.014-17.257-14.145-8.77-1.132-15.843 1.98-20.652 9.336-2.546 3.678-3.678 7.638-4.244 11.882-1.132 7.073-1.98 14.428-4.809 20.935-5.941 14.428-17.257 22.915-31.968 26.876-2.829 0.849-5.941 1.415-8.77 1.98-2.263 0.566-4.809 1.132-7.073 1.697-10.468 3.112-15.843 9.619-15.843 18.672 0 10.75 5.941 19.521 15.843 22.35 9.619 2.829 19.521 2.263 29.139-0.283 22.915-6.507 39.89-20.935 53.186-40.173 8.77-12.448 14.428-26.593 14.428-42.436z" />
<glyph unicode="&#xe910;" horiz-adv-x="1073" d="M778.962 374.857l98.752-98.752v98.752h9.752c80.791 0 146.286 65.494 146.286 146.286v292.571c0 80.791-65.494 146.286-146.286 146.286h-448.61c-80.791 0-146.286-65.494-146.286-146.286v-292.571c0-80.791 65.494-146.286 146.286-146.286h340.105z" />
<glyph unicode="&#xe911;" horiz-adv-x="1073" d="M799.695 667.429c0-32.317 26.198-58.514 58.514-58.514s58.514 26.198 58.514 58.514c0 32.317-26.198 58.514-58.514 58.514s-58.514-26.198-58.514-58.514z" />
<glyph unicode="&#xe912;" horiz-adv-x="1073" d="M604.648 667.429c0-32.317 26.198-58.514 58.514-58.514s58.514 26.198 58.514 58.514c0 32.317-26.198 58.514-58.514 58.514s-58.514-26.198-58.514-58.514z" />
<glyph unicode="&#xe913;" horiz-adv-x="1073" d="M409.6 667.429c0-32.317 26.198-58.514 58.514-58.514s58.514 26.198 58.514 58.514c0 32.317-26.198 58.514-58.514 58.514s-58.514-26.198-58.514-58.514z" />
<glyph unicode="&#xe914;" horiz-adv-x="1073" d="M363.57 261.079l-184.777-184.777v199.17c-71.811 29.274-121.363 99.768-121.363 180.655v162.54c0 107.722 87.326 195.048 195.048 195.048h283.903c107.722 0 195.048-87.326 195.048-195.048v-162.54c0-107.722-87.326-195.048-195.048-195.048h-172.811z" />
<glyph unicode="&#xe915;" horiz-adv-x="1073" d="M497.371 537.397c0-26.93 21.831-48.762 48.762-48.762s48.762 21.831 48.762 48.762c0 26.93-21.831 48.762-48.762 48.762s-48.762-21.831-48.762-48.762z" />
<glyph unicode="&#xe916;" horiz-adv-x="1073" d="M345.668 537.397c0-26.93 21.831-48.762 48.762-48.762s48.762 21.831 48.762 48.762c0 26.93-21.831 48.762-48.762 48.762s-48.762-21.831-48.762-48.762z" />
<glyph unicode="&#xe917;" horiz-adv-x="1073" d="M193.964 537.397c0-26.93 21.831-48.762 48.762-48.762s48.762 21.831 48.762 48.762c0 26.93-21.831 48.762-48.762 48.762s-48.762-21.831-48.762-48.762z" />
<glyph unicode="&#xe918;" d="M1014.452 452.774c0-280.133-227.093-507.226-507.226-507.226s-507.226 227.093-507.226 507.226c0 280.133 227.093 507.226 507.226 507.226s507.226-227.093 507.226-507.226z" />
<glyph unicode="&#xe919;" d="M772.999 184.242h-512.526c-12.341 0-21.779 9.437-21.779 21.779 0 153.903 98.73 238.84 278.042 238.84s278.042-84.937 278.042-238.84c0-12.341-9.437-21.779-21.779-21.779zM516.736 476.803c-79.855 0-144.465 70.418-144.465 156.807 0 84.211 62.432 147.369 144.465 147.369s144.465-63.158 144.465-147.369c0-86.389-64.61-156.807-144.465-156.807z" />
<glyph unicode="&#xe91a;" glyph-name="close" d="M615.44 448l413.758-413.758-103.44-103.44-413.758 413.758-413.758-413.758-103.44 103.44 413.758 413.758-413.758 413.758 103.44 103.44 413.758-413.758 413.758 413.758 103.44-103.44-413.758-413.758z" />
<glyph unicode="&#xe91b;" glyph-name="home" horiz-adv-x="1075" d="M1017.6 435.2l-454.4 486.4c-19.2 25.6-57.6 25.6-76.8 0l-460.8-499.2c-32-38.4-6.4-102.4 44.8-102.4h102.4v-345.6c0-12.8 12.8-38.4 38.4-38.4h166.4c19.2 0 38.4 19.2 38.4 38.4v185.6c0 19.2 12.8 32 32 32h179.2c12.8 0 25.6-12.8 25.6-32v-185.6c0-19.2 12.8-38.4 38.4-38.4h153.6c38.4 0 44.8 19.2 44.8 38.4v345.6h83.2c57.6 0 83.2 70.4 44.8 115.2z" />
<glyph unicode="&#xe91c;" glyph-name="list_1" horiz-adv-x="956" d="M955.733 322.844v265.481h-955.733v-265.481h955.733zM812.373-48.83v265.481h-812.373v-265.481h812.373zM525.653 694.519v265.481h-525.653v-265.481h525.653z" />
<glyph unicode="&#xe91d;" glyph-name="list_2" horiz-adv-x="1097" d="M682.667 960h-284.444v-1024h284.444v1024zM1080.889 806.4h-284.444v-870.4h284.444v870.4zM284.444 499.2h-284.444v-563.2h284.444v563.2z" />
<glyph unicode="&#xe91e;" glyph-name="list_icon_1" horiz-adv-x="1088" d="M0 168.727h1088v-98.909h-1088v98.909zM0 514.909h1088v-98.909h-1088v98.909zM0 861.091h1088v-98.909h-1088v98.909zM544 811.636c0-81.939-66.425-148.364-148.364-148.364s-148.364 66.425-148.364 148.364c0 81.939 66.425 148.364 148.364 148.364s148.364-66.425 148.364-148.364zM890.182 465.455c0-81.939-66.425-148.364-148.364-148.364s-148.364 66.425-148.364 148.364c0 81.939 66.425 148.364 148.364 148.364s148.364-66.425 148.364-148.364zM642.909 119.273c0-81.939-66.425-148.364-148.364-148.364s-148.364 66.425-148.364 148.364c0 81.939 66.425 148.364 148.364 148.364s148.364-66.425 148.364-148.364z" />
<glyph unicode="&#xe91f;" glyph-name="lock" horiz-adv-x="704" d="M64 512h576c35.346 0 64-28.654 64-64v-448c0-35.346-28.654-64-64-64h-576c-35.346 0-64 28.654-64 64v448c0 35.346 28.654 64 64 64zM320 320v-192h64v192h-64z" />
<glyph unicode="&#xe921;" horiz-adv-x="853" d="M113.778 960h398.222c62.838 0 113.778-50.94 113.778-113.778v-796.444c0-62.838-50.94-113.778-113.778-113.778h-398.222c-62.838 0-113.778 50.94-113.778 113.778v796.444c0 62.838 50.94 113.778 113.778 113.778z" />
<glyph unicode="&#xe922;" horiz-adv-x="853" d="M256 760.889v-398.222h568.889v398.222h-568.889z" />
<glyph unicode="&#xe923;" glyph-name="money" horiz-adv-x="1317" d="M1307.015 407.309l-109.066-7.104-37.658 310.856-90.236 4.263c-24.513 1.067-48.671 1.422-72.829 1.422-27.712 0-55.421-0.711-82.777-2.129-34.106 42.63-84.909 71.053-142.105 74.245-93.435 6.397-165.552-58.259-192.908-119.719-1.067-2.845-1.776-5.33-2.843-8.17-23.802-6.397-46.539-12.793-67.854-19.186-69.632-20.252-135.355-39.438-231.988-51.16-15.276-2.129-30.908-3.196-46.895-4.619l-29.13 207.833h41.21c82.421-1.067 165.908 4.97 247.973 17.052 89.883 13.14 154.185 30.197 216.001 46.537 61.46 16.345 124.698 33.397 211.027 45.475 96.986 13.856 197.171 18.474 298.776 13.145l29.843-1.422 61.46-507.318zM1097.055 642.853l65.367-538.23-42.63 2.845c-79.225 4.974-159.515 2.845-238.738-6.392-103.381-11.726-176.212-32.33-246.553-52.578-25.578-7.108-50.802-14.571-77.092-21.319-129.317-32.681-267.868-49.382-412.816-49.382-17.408 0-34.817 0.356-52.225 0.711l-30.908 1.067-61.46 535.025 41.921-2.485c81.355-4.619 163.067-2.129 243.71 7.815 100.54 12.433 169.817 32.33 243.001 53.645 64.658 18.83 131.448 38.011 222.751 52.578 101.605 16.701 207.828 22.737 315.472 18.119l30.199-1.418zM713.015 223.284c24.513 33.748 34.46 75.316 26.289 114.394-13.856 68.919-79.579 120.435-156.317 122.564h-1.776c-86.684-2.485-157.737-69.986-158.802-150.276-0.711-40.852 17.763-81.352 50.091-110.482 30.552-27.712 69.988-42.634 110.486-42.634 6.041 0 11.724 0.356 17.763 0.711 44.764 4.974 85.62 28.774 112.265 65.723z" />
<glyph unicode="&#xe924;" glyph-name="more" horiz-adv-x="3277" d="M1638.4 23.771c-226.216 0-409.6 209.582-409.6 468.114s183.384 468.114 409.6 468.114c226.216 0 409.6-209.582 409.6-468.114s-183.384-468.114-409.6-468.114zM2867.2 23.771c-226.216 0-409.6 209.582-409.6 468.114s183.384 468.114 409.6 468.114c226.216 0 409.6-209.582 409.6-468.114s-183.384-468.114-409.6-468.114zM409.6 23.771c-226.216 0-409.6 209.582-409.6 468.114s183.384 468.114 409.6 468.114c226.216 0 409.6-209.582 409.6-468.114s-183.384-468.114-409.6-468.114z" />
<glyph unicode="&#xe925;" glyph-name="notification" horiz-adv-x="916" d="M879.741 78.917h-847.976c-25.408 0-41.287 28.583-25.408 50.815 41.287 58.755 68.283 131.802 68.283 203.26v238.195c0 211.2 169.913 381.113 381.113 381.113s381.113-169.913 381.113-381.113v-238.195c0-71.459 26.995-144.505 68.283-203.26 15.88-22.232 0-50.815-25.408-50.815zM455.753-64c68.283 0 125.45 47.639 139.741 111.158h-279.483c14.292-63.519 71.459-111.158 139.741-111.158z" />
<glyph unicode="&#xe928;" glyph-name="plus" d="M551.385 960v-1024h-78.769v1024zM1024 408.615h-1024v78.769h1024v-78.769z" />
<glyph unicode="&#xe929;" glyph-name="products" d="M346.585 960c77.456 0 139.159-61.703 139.159-139.159v-207.426c0-77.456-61.703-139.159-137.846-139.159h-208.738c-77.456 0-139.159 61.703-139.159 137.846v208.738c0 77.456 61.703 139.159 139.159 139.159h207.426zM677.415 474.256c-77.456 0-139.159 61.703-139.159 137.846v208.738c0 77.456 61.703 139.159 139.159 139.159h207.426c77.456 0 139.159-61.703 139.159-139.159v-207.426c0-77.456-61.703-139.159-137.846-139.159h-208.738zM346.585 421.744c77.456 0 139.159-61.703 139.159-139.159v-207.426c0-77.456-61.703-139.159-137.846-139.159h-208.738c-77.456 0-139.159 61.703-139.159 137.846v208.738c0 77.456 61.703 139.159 139.159 139.159h207.426zM781.128-64c-134.134 0-242.872 108.737-242.872 242.872s108.737 242.872 242.872 242.872c134.134 0 242.872-108.737 242.872-242.872s-108.737-242.872-242.872-242.872z" />
<glyph unicode="&#xe92a;" glyph-name="salary" horiz-adv-x="1144" d="M1033.916 345.6h-941.432l-85.325-256h1112.082l-85.325 256zM230.4 140.8h-51.2c-14.138 0-25.6 11.462-25.6 25.6s11.462 25.6 25.6 25.6h51.2c14.138 0 25.6-11.462 25.6-25.6s-11.462-25.6-25.6-25.6zM281.6 243.2h-51.2c-14.138 0-25.6 11.462-25.6 25.6s11.462 25.6 25.6 25.6h51.2c14.138 0 25.6-11.462 25.6-25.6s-11.462-25.6-25.6-25.6zM384 140.8h-51.2c-14.138 0-25.6 11.462-25.6 25.6s11.462 25.6 25.6 25.6h51.2c14.138 0 25.6-11.462 25.6-25.6s-11.462-25.6-25.6-25.6zM435.2 243.2h-51.2c-14.138 0-25.6 11.462-25.6 25.6s11.462 25.6 25.6 25.6h51.2c14.138 0 25.6-11.462 25.6-25.6s-11.462-25.6-25.6-25.6zM588.8 140.8h-51.2c-14.138 0-25.6 11.462-25.6 25.6s11.462 25.6 25.6 25.6h51.2c14.138 0 25.6-11.462 25.6-25.6s-11.462-25.6-25.6-25.6zM588.8 243.2h-51.2c-14.138 0-25.6 11.462-25.6 25.6s11.462 25.6 25.6 25.6h51.2c14.138 0 25.6-11.462 25.6-25.6s-11.462-25.6-25.6-25.6zM665.6 268.8c-0.004 6.791 2.692 13.305 7.494 18.106s11.316 7.498 18.106 7.494h51.2c14.138 0 25.6-11.462 25.6-25.6s-11.462-25.6-25.6-25.6h-51.2c-6.791-0.004-13.305 2.692-18.106 7.494s-7.498 11.316-7.494 18.106v0zM793.6 140.8h-51.2c-14.138 0-25.6 11.462-25.6 25.6s11.462 25.6 25.6 25.6h51.2c14.138 0 25.6-11.462 25.6-25.6s-11.462-25.6-25.6-25.6zM819.2 268.8c-0.004 6.791 2.692 13.305 7.494 18.106s11.316 7.498 18.106 7.494h51.2c14.138 0 25.6-11.462 25.6-25.6s-11.462-25.6-25.6-25.6h-51.2c-6.791-0.004-13.305 2.692-18.106 7.494s-7.498 11.316-7.494 18.106v0zM947.2 140.8h-51.2c-14.138 0-25.6 11.462-25.6 25.6s11.462 25.6 25.6 25.6h51.2c14.138 0 25.6-11.462 25.6-25.6s-11.462-25.6-25.6-25.6zM1024 678.4c0.004 6.791-2.692 13.305-7.494 18.106s-11.316 7.498-18.106 7.494h-179.2v51.2h128c6.791-0.004 13.305 2.692 18.106 7.494s7.498 11.316 7.494 18.106v153.6c0.004 6.791-2.692 13.305-7.494 18.106s-11.316 7.498-18.106 7.494h-358.4c-6.791 0.004-13.305-2.692-18.106-7.494s-7.498-11.316-7.494-18.106v-153.6c-0.004-6.791 2.692-13.305 7.494-18.106s11.316-7.498 18.106-7.494h128v-51.2h-588.8c-6.791 0.004-13.305-2.692-18.106-7.494s-7.498-11.316-7.494-18.106v-281.6h921.6v281.6zM0 38.4v-76.8c-0.004-6.791 2.692-13.305 7.494-18.106s11.316-7.498 18.106-7.494h1075.2c6.791-0.004 13.305 2.692 18.106 7.494s7.498 11.316 7.494 18.106v76.8h-1126.4zM460.8 883.2c0.004 6.791-2.692 13.305-7.494 18.106s-11.316 7.498-18.106 7.494h-204.8c-6.791 0.004-13.305-2.692-18.106-7.494s-7.498-11.316-7.494-18.106v-128h256v128z" />
<glyph unicode="&#xe92b;" glyph-name="search" d="M778.582 268.34l245.418-244.032-88.105-88.307-245.208 243.731c-71.005-53.27-159.156-84.947-254.727-85.265-173.19-0.78-329.76 102.953-396.568 262.74s-30.671 344.093 91.532 466.82c122.203 122.727 306.352 159.653 466.424 93.528s264.473-222.249 264.434-395.441c0.091-94.984-30.825-182.771-83.2-253.774zM435.96 825.156c-122.751 0.821-233.872-72.49-281.417-185.662s-22.121-243.847 64.387-330.938c86.508-87.091 217.010-113.392 330.498-66.608s187.544 157.411 187.547 280.164c0.393 166.738-134.279 302.317-301.015 303.043z" />
<glyph unicode="&#xe92c;" glyph-name="settings" d="M982.146 364.218l-85.118 64.501c0.894 8.968 1.803 18.814 1.803 29.57s-0.909 20.602-1.803 29.57l85.118 64.501c23.298 17.92 29.57 49.277 14.33 76.15l-94.964 160.375c-10.956 18.821-31.074 30.418-52.852 30.463-7.181 0-13.452-0.909-20.617-3.59l-101.236-39.416c-16.713 11.388-34.399 21.277-52.852 29.554l-15.239 103.039c-4.453 29.57-29.538 51.065-60.017 51.065h-191.732c-30.463 0-55.549-21.495-60.017-50.171l-14.346-103.933c-17.92-8.059-34.932-17.905-52.852-29.554l-101.236 39.416c-6.892 2.496-14.182 3.713-21.511 3.59-21.495 0-42.097-10.755-51.958-29.57l-95.858-161.269c-15.239-25.086-8.968-58.23 14.33-76.15l85.118-64.501c-0.925-10.755-1.803-20.633-1.803-29.57s0-18.814 1.803-29.57l-85.118-64.501c-23.298-17.92-29.57-49.277-14.33-76.15l94.964-160.375c10.956-18.821 31.074-30.418 52.852-30.463 7.165 0 13.436 0.909 20.617 3.59l101.236 39.416c16.713-11.388 34.399-21.277 52.852-29.554l15.239-103.039c3.575-28.645 29.554-51.065 60.017-51.065h191.732c30.463 0 55.549 21.495 60.017 50.171l15.239 103.933c17.92 8.059 34.932 17.905 52.852 29.554l101.236-39.416c7.165-2.681 14.346-3.59 21.511-3.59 21.495 0 42.097 10.755 51.958 29.57l95.858 162.162c14.346 25.979 8.074 57.336-15.224 75.257zM717.854 458.289c0-118.263-96.768-215.015-215.030-215.015-118.247 0-215.015 96.752-215.015 215.015s96.768 215.015 215.015 215.015c118.263 0 215.030-96.752 215.030-215.015z" />
<glyph unicode="&#xe92d;" glyph-name="Shape" horiz-adv-x="1243" d="M137.839 143.605v-145.885c0-16.833 8.982-33.666 20.959-44.888s26.947-16.833 44.912-16.833c17.965 0 32.936 5.611 47.906 16.833l197.614 185.162h598.83c95.813 0 173.661 72.942 173.661 162.718v496.57c0 89.775-77.848 162.718-173.661 162.718h-874.292c-95.813 0-173.661-72.942-173.661-162.718v-493.764c-2.994-78.553 56.889-145.885 137.731-159.912zM239.64 732.756h736.561v-123.441h-736.561v123.441zM239.64 488.679h494.035v-123.441h-494.035v123.441z" />
<glyph unicode="&#xe92e;" glyph-name="sheriff" horiz-adv-x="853" d="M411.748 960c-114.573-102.042-259.58-161.119-411.748-164.699v-538.853c66.238-148.587 195.133-259.58 352.671-304.336l59.077-16.112 59.077 17.902c157.538 42.965 286.434 153.958 352.671 304.336v537.063c-152.168 5.371-297.175 62.657-411.748 164.699zM544.224 252.867l-132.476 69.818-132.476-69.818 25.063 148.587-107.413 105.622 148.587 21.483 66.238 134.266 66.238-134.266 148.587-21.483-107.413-105.622 25.063-148.587z" />
<glyph unicode="&#xe92f;" horiz-adv-x="1344" d="M1303.273 564.364c0-218.504-177.132-395.636-395.636-395.636s-395.636 177.132-395.636 395.636c0 218.504 177.132 395.636 395.636 395.636s395.636-177.132 395.636-395.636z" />
<glyph unicode="&#xe930;" horiz-adv-x="1344" d="M907.636 727.273v-211.615" />
<glyph unicode="&#xe931;" horiz-adv-x="1344" d="M907.636 515.658h162.909" />
<glyph unicode="&#xe932;" horiz-adv-x="1344" d="M280.876 380.298c-58.081 52.826-94.694 130.116-94.694 216.003 0 154.633 120.691 270.608 279.273 270.608s279.273-115.975 279.273-270.608c0-85.887-36.613-163.177-94.694-216.003 182.607-47.161 280.876-171.999 280.876-362.747 0-19.837-15.799-35.006-36.459-35.006h-857.992c-20.66 0-36.459 15.169-36.459 35.006 0 190.747 98.268 315.586 280.876 362.747z" />
<glyph unicode="&#xe933;" horiz-adv-x="1344" d="M783.265-48.985h-706.69c-17.017 0-30.029 13.013-30.029 30.029 0 212.207 136.133 329.322 383.374 329.322s383.374-117.114 383.374-329.322c0-17.017-13.013-30.029-30.029-30.029zM429.92 354.409c-110.108 0-199.195 97.095-199.195 216.211 0 116.113 86.084 203.198 199.195 203.198s199.195-87.085 199.195-203.198c0-119.116-89.087-216.211-199.195-216.211z" />
<glyph unicode="&#xe934;" horiz-adv-x="1081" d="M1049.803-30.189h-628.169c-15.126 0-26.693 11.567-26.693 26.693 0 188.629 121.007 292.73 340.777 292.73s340.777-104.102 340.777-292.73c0-15.126-11.567-26.693-26.693-26.693zM735.718 328.383c-97.873 0-177.062 86.307-177.062 192.188 0 103.212 76.519 180.621 177.062 180.621s177.062-77.409 177.062-180.621c0-105.881-79.188-192.188-177.062-192.188z" />
<glyph unicode="&#xe935;" horiz-adv-x="1081" d="M607.737 712.307c64.69-9.748 89.371-90.525 41.628-133.887l-83.075-80.048 17.867-113.917c10.962-64.743-57.982-112.82-114.465-81.224l-100.542 54.632-101.824-52.173c-58.157-30.071-125.291 20.479-112.88 84.376l20.912 113.696-80.689 81.258c-46.917 45.672-19.714 124.393 44.817 133.884l112.364 14.882 53.213 112.719c14.634 26.831 39.003 42.344 65.245 42.29 31.497 1.583 61.927-17.358 75.358-46.167l49.776-112.461 112.294-17.861z" />
<glyph unicode="&#xe936;" horiz-adv-x="1365" d="M1334.525-30.189h-628.169c-15.126 0-26.693 11.567-26.693 26.693 0 188.629 121.007 292.73 340.777 292.73s340.777-104.102 340.777-292.73c0-15.126-11.567-26.693-26.693-26.693zM1020.441 328.383c-97.873 0-177.062 86.307-177.062 192.188 0 103.212 76.519 180.621 177.062 180.621s177.062-77.409 177.062-180.621c0-105.881-79.188-192.188-177.062-192.188z" />
<glyph unicode="&#xe937;" horiz-adv-x="1365" d="M604.977 337.058c-52.108 45.442-85.47 115.392-85.47 193.635 0 133.018 98.052 232.781 226.888 232.781s226.888-99.763 226.888-232.781c0-83.177-37.702-156.981-95.546-201.935 183.441-42.573 282.395-166.3 282.395-358.557 0-19.381-14.949-34.202-34.498-34.202h-811.863c-19.549 0-34.498 14.821-34.498 34.202 0 206.877 114.577 334.405 325.705 366.856z" />
<glyph unicode="&#xe938;" horiz-adv-x="1365" d="M1049.803-30.189h-628.169c-15.126 0-26.693 11.567-26.693 26.693 0 188.629 121.007 292.73 340.777 292.73s340.777-104.102 340.777-292.73c0-15.126-11.567-26.693-26.693-26.693zM735.718 328.383c-97.873 0-177.062 86.307-177.062 192.188 0 103.212 76.519 180.621 177.062 180.621s177.062-77.409 177.062-180.621c0-105.881-79.188-192.188-177.062-192.188z" />
<glyph unicode="&#xe939;" horiz-adv-x="1365" d="M607.737 712.307c64.69-9.748 89.371-90.525 41.628-133.887l-83.075-80.048 17.867-113.917c10.962-64.743-57.982-112.82-114.465-81.224l-100.542 54.632-101.824-52.173c-58.157-30.071-125.291 20.479-112.88 84.376l20.912 113.696-80.689 81.258c-46.917 45.672-19.714 124.393 44.817 133.884l112.364 14.882 53.213 112.719c14.634 26.831 39.003 42.344 65.245 42.29 31.497 1.583 61.927-17.358 75.358-46.167l49.776-112.461 112.294-17.861z" />
<glyph unicode="&#xe93a;" horiz-adv-x="1152" d="M736.863 478.006c15.117 0 27.397-12.28 27.397-27.397v-514.609h-419.996v514.609c0 15.135 12.263 27.397 27.397 27.397h365.202zM242.181 297.995c15.135 0 27.415-12.263 27.415-27.397v-334.598h-259.331v334.598c0 15.135 12.263 27.397 27.397 27.397h204.519zM1070.862 238.003c15.117 0 27.397-12.263 27.397-27.397v-274.606h-259.331v274.606c0 15.135 12.263 27.397 27.397 27.397h204.536z" />
<glyph unicode="&#xe93b;" horiz-adv-x="1152" d="M746.853 812.798l-113.993 18.006-49.808 111.756c-4.792 10.201-16.791 18.006-28.789 17.407-9.602 0-18.605-4.81-25.195-16.808l-52.204-109.959-113.993-14.994c-24.596-3.594-35.396-33.599-17.39-51.006l81.593-81.593-21.002-113.394c-4.81-24.596 21.002-43.8 43.201-32.401l102.594 52.204 2.396-1.198 99-53.402c21.601-11.998 47.994 6.008 43.8 30.604l-18.006 113.993 83.39 79.795c18.605 16.791 9.003 47.394-15.593 50.989z" />
<glyph unicode="&#xe93c;" horiz-adv-x="1152" d="M260.258 519.868l-72.307 11.399-31.59 70.88c-3.048 6.466-10.659 11.417-18.271 11.029-6.078 0-11.787-3.048-15.98-10.659l-33.106-69.735-72.29-9.514c-15.593-2.29-22.446-21.301-11.029-32.348l51.764-51.729-13.32-71.92c-3.048-15.593 13.32-27.767 27.397-20.543l65.066 33.106 1.515-0.758 62.776-33.863c13.69-7.611 30.445 3.806 27.767 19.398l-11.417 72.29 52.892 50.601c11.822 10.677 5.726 30.075-9.867 32.366z" />
<glyph unicode="&#xe93d;" horiz-adv-x="1152" d="M1073.593 427.528l-62.177 9.814-27.168 60.961c-2.608 5.568-9.162 9.814-15.698 9.497-5.233 0-10.148-2.625-13.743-9.162l-28.472-59.974-62.177-8.175c-13.408-1.973-19.31-18.324-9.497-27.82l44.505-44.505-11.452-61.842c-2.625-13.408 11.452-23.891 23.556-17.672l55.957 28.472 1.304-0.652 54.002-29.124c11.787-6.537 26.181 3.277 23.891 16.685l-9.814 62.177 45.492 43.518c10.131 9.144 4.898 25.847-8.51 27.802z" />
<glyph unicode="&#xe93e;" glyph-name="two_arr" horiz-adv-x="973" d="M416.857 537.292v169.22l-296.157-296.157-96.128 96.128 296.157 296.157h-169.22v135.924h401.272v-401.272zM556.594 347.691v-169.22l296.157 296.157 96.128-96.128-296.157-296.157h169.22v-135.924h-401.272v401.272z" />
<glyph unicode="&#xe93f;" horiz-adv-x="1390" d="M1305.875-22.159h-777.359c-18.718 0-33.032 14.314-33.032 33.032 0 233.428 149.746 362.254 421.712 362.254s421.712-128.826 421.712-362.254c0-18.718-14.314-33.032-33.032-33.032zM917.196 421.574c-121.118 0-219.114 106.804-219.114 237.832 0 127.725 94.692 223.518 219.114 223.518s219.114-95.794 219.114-223.518c0-131.028-97.996-237.832-219.114-237.832z" />
<glyph unicode="&#xe940;" horiz-adv-x="1390" d="M403.060 432.31c-64.484 56.235-105.769 142.797-105.769 239.624 0 164.609 121.34 288.067 280.774 288.067s280.774-123.457 280.774-288.067c0-102.932-46.656-194.264-118.239-249.894 227.008-52.685 349.464-205.796 349.464-443.714 0-23.984-18.5-42.325-42.692-42.325h-1004.681c-24.192 0-42.692 18.341-42.692 42.325 0 256.010 141.79 413.826 403.060 453.984z" />
<glyph unicode="&#xe941;" horiz-adv-x="1390" d="M953.531-22.159h-777.359c-18.718 0-33.032 14.314-33.032 33.032 0 233.428 149.746 362.254 421.712 362.254s421.712-128.826 421.712-362.254c0-18.718-14.314-33.032-33.032-33.032zM564.852 421.574c-121.118 0-219.114 106.804-219.114 237.832 0 127.725 94.692 223.518 219.114 223.518s219.114-95.794 219.114-223.518c0-131.028-97.996-237.832-219.114-237.832z" />
<glyph unicode="&#xe942;" glyph-name="calendar" horiz-adv-x="975" d="M851.114 814.654c48.962 0 88.663-39.69 88.663-88.652v-685.63c0-48.952-39.7-88.642-88.663-88.642h-762.452c-48.962 0-88.663 39.69-88.663 88.642v685.63c0 48.962 39.7 88.652 88.663 88.652h31.013v-56.136c0-37.487 30.491-67.988 67.988-67.988 37.466 0 67.967 30.501 67.967 67.988v56.136h428.507v-56.136c0-37.487 30.501-67.988 67.977-67.988 37.487 0 67.977 30.501 67.977 67.988v56.136h31.023zM830.408 90.19h0.010v444.118c0 17.741-15.861 32.109-35.471 32.109h-650.117c-19.6 0-35.471-14.368-35.471-32.109v-444.118c0-17.72 15.872-32.057 35.471-32.057h650.107c19.61 0 35.471 14.337 35.471 32.057zM187.663 726.002c-17.929 0-32.506 14.577-32.506 32.516v135.944c0 17.95 14.577 32.506 32.506 32.506s32.506-14.567 32.506-32.506v-135.944c0-17.939-14.587-32.516-32.506-32.516zM752.114 726.002c-17.929 0-32.516 14.577-32.516 32.516v135.944c0 17.95 14.587 32.506 32.516 32.506s32.506-14.567 32.506-32.506v-135.944c0-17.939-14.577-32.516-32.506-32.516zM171.509 511.012h172v-176.010h-172v176.010zM388.044 511.012h171.99v-176.010h-171.99v176.010zM171.509 294.675h172v-176.010h-172v176.010zM388.044 294.675h171.99v-176.010h-171.99v176.010zM612.63 511.012h171.99v-176.010h-171.99v176.010zM612.63 294.675h171.99v-176.010h-171.99v176.010z" />
</font>
</defs>
</svg>
