<?xml version="1.0" standalone="no"?>
<!DOCTYPE svg PUBLIC "-//W3C//DTD SVG 1.1//EN" "http://www.w3.org/Graphics/SVG/1.1/DTD/svg11.dtd" >
<svg>
<metadata>
Created by FontForge 20090914 at Wed Feb 24 15:26:43 2016
 By www-data
Copyright (c) BPG-InfoTech, Monotype Typography, 2010. All rights reserved.
</metadata>
<defs>
<font id="bpg_arial_capsregular" horiz-adv-x="1536" >
  <font-face 
    font-family="BPG Arial Caps 2010"
    font-weight="400"
    font-variant="small-caps"
    font-stretch="normal"
    units-per-em="2048"
    panose-1="2 11 6 4 2 2 2 2 2 4"
    ascent="1638"
    descent="-410"
    x-height="1062"
    cap-height="1466"
    bbox="-1360.02 -665 4096 2060"
    underline-thickness="150"
    underline-position="-142"
    unicode-range="U+0020-U+FFFC"
  />
<missing-glyph 
d="M256 0v1280h1024v-1280h-1024zM288 32h960v1216h-960v-1216z" />
    <glyph glyph-name="afii52400" unicode="&#x622;" horiz-adv-x="424" arabic-form="isolated" 
d="M422 1654c-18.667 -21.333 -37.666 -37.667 -56.999 -49c-27.333 -16 -57 -24 -89 -24c-33.333 0 -65 5 -95 15c-66 22 -101 33 -105 33c-8 0 -16 -1.16699 -24 -3.5s-17 -5.83301 -27 -10.5l-11 13c16.667 24 28.667 39 36 45c15.333 13.333 35.666 20 60.999 20
c6 0 42.333 -10.667 109 -32c33.333 -10.667 61 -16 83 -16c35.333 0 70.333 7.66699 105 23zM338.001 547.999c0 -53.333 -9.66699 -104.997 -29 -154.997c-10 -26.667 -31.667 -69 -65 -127l-18 10c2 19.333 3.83301 41.666 5.5 66.999s2.5 42.333 2.5 51
c0 69.333 -5.5 166.166 -16.5 290.499s-24.167 254.166 -39.5 389.499c-9.33301 82 -19.666 165.667 -30.999 251c13.333 29.333 28.5 61 45.5 95l48.5 96c10.667 -76 24.167 -180 40.5 -312s29.166 -251 38.499 -357c12 -132 18 -231.667 18 -299z" />
    <glyph glyph-name="afii57411" unicode="&#x623;" horiz-adv-x="424" arabic-form="isolated" 
d="M366 1638c0 -16.667 -10.332 -31.667 -30.999 -45c-14 -8.66699 -35 -18 -63 -28l-186 -64c0 30.667 33.333 57.667 100 81c-20.667 10.667 -36.334 21 -47.001 31c-14 12.667 -21 26 -21 40c0 20.667 17.667 49.667 53 87c39.333 41.333 74 62 104 62
c13.333 0 24.833 -4.5 34.5 -13.5s14.5 -20.833 14.5 -35.5c0 -9.33301 -2 -18.833 -6 -28.5s-9.66699 -20.5 -17 -32.5c-20.667 18.667 -43 28 -67 28c-14.667 0 -29.167 -3 -43.5 -9s-21.5 -13 -21.5 -21c0 -10 15.5 -23.667 46.5 -41s57.5 -26 79.5 -26
c14.667 0 25.167 0.5 31.5 1.5s19.5 5.5 39.5 13.5zM338.001 548c0 -53.333 -9.66699 -104.997 -29 -154.997c-10 -26.667 -31.667 -69 -65 -127l-18 10c2 19.333 3.83301 41.666 5.5 66.999s2.5 42.333 2.5 51c0 69.333 -5.5 166.166 -16.5 290.499
s-24.167 254.166 -39.5 389.499c-9.33301 82 -19.666 165.667 -30.999 251c13.333 29.333 28.5 61 45.5 95l48.5 96c10.667 -76 24.167 -180 40.5 -312s29.166 -251 38.499 -357c12 -132 18 -231.667 18 -299z" />
    <glyph glyph-name="afii57412" unicode="&#x624;" horiz-adv-x="885" arabic-form="isolated" 
d="M885 353c0 -110 -40.667 -219.335 -122 -328.002c-90.667 -121.333 -195.334 -182 -314.001 -182c-44 0 -89.333 5 -136 15c-34 7.33301 -78.333 20 -133 38l-130 45l17 35l117.5 -27.5c41 -9.66699 77.833 -14.5 110.5 -14.5c81.333 0 158.333 20.667 231 62
c56.667 32.667 113.334 80 170.001 142c28.667 31.333 69.334 82.333 122.001 153c-90 0 -157.333 14.333 -202 43c-50.667 32.667 -76 86.334 -76 161.001c0 68.667 16 132.334 48 191.001c37.333 68 84.666 102 141.999 102c58 0 99.667 -33.667 125 -101
c20 -52.667 30 -126 30 -220v-114zM822 461.998c-14.667 64 -32.332 108.333 -52.999 133c-18 21.333 -40 32 -66 32c-18.667 0 -34.834 -6.16699 -48.501 -18.5s-20.5 -27.833 -20.5 -46.5c0 -32.667 14.667 -57.5 44 -74.5s77.333 -25.5 144 -25.5zM645.002 972.998
c0 -16.667 -10.332 -31.667 -30.999 -45c-14 -8.66699 -35 -18 -63 -28l-186 -64c0 30.667 33.333 57.667 100 81c-20.667 10.667 -36.334 21 -47.001 31c-14 12.667 -21 26 -21 40c0 20.667 17.667 49.667 53 87c39.333 41.333 74 62 104 62
c13.333 0 24.833 -4.5 34.5 -13.5s14.5 -20.833 14.5 -35.5c0 -9.33301 -2 -18.833 -6 -28.5s-9.66699 -20.5 -17 -32.5c-20.667 18.667 -43 28 -67 28c-14.667 0 -29.167 -3 -43.5 -9s-21.5 -13 -21.5 -21c0 -10 15.5 -23.667 46.5 -41s57.5 -26 79.5 -26
c14.667 0 25.167 0.5 31.5 1.5s19.5 5.5 39.5 13.5z" />
    <glyph glyph-name="afii57413" unicode="&#x625;" horiz-adv-x="424" arabic-form="isolated" 
d="M325 -55c0 -16.667 -10.332 -31.667 -30.999 -45c-14 -8.66699 -35 -18 -63 -28l-186 -64c0 30.667 33.333 57.667 100 81c-20.667 10.667 -36.334 21 -47.001 31c-14 12.667 -21 26 -21 40c0 20.667 17.667 49.667 53 87c39.333 41.333 74 62 104 62
c13.333 0 24.833 -4.5 34.5 -13.5s14.5 -20.833 14.5 -35.5c0 -9.33301 -2 -18.833 -6 -28.5s-9.66699 -20.5 -17 -32.5c-20.667 18.667 -43 28 -67 28c-14.667 0 -29.167 -3 -43.5 -9s-21.5 -13 -21.5 -21c0 -10 15.5 -23.667 46.5 -41s57.5 -26 79.5 -26
c14.667 0 25.167 0.5 31.5 1.5s19.5 5.5 39.5 13.5zM338.001 548c0 -53.333 -9.66699 -104.997 -29 -154.997c-10 -26.667 -31.667 -69 -65 -127l-18 10c2 19.333 3.83301 41.666 5.5 66.999s2.5 42.333 2.5 51c0 69.333 -5.5 166.166 -16.5 290.499
s-24.167 254.166 -39.5 389.499c-9.33301 82 -19.666 165.667 -30.999 251c13.333 29.333 28.5 61 45.5 95l48.5 96c10.667 -76 24.167 -180 40.5 -312s29.166 -251 38.499 -357c12 -132 18 -231.667 18 -299z" />
    <glyph glyph-name="afii57414" unicode="&#x626;" horiz-adv-x="1307" arabic-form="isolated" 
d="M1241 800c0 -21.333 -2.00098 -43.1719 -6.00098 -65.5049s-6.66699 -38.166 -8 -47.499c-23.333 30 -51.166 53.667 -83.499 71s-65.166 26 -98.499 26c-58 0 -119 -33.667 -183 -101c-58.667 -62 -88 -111.333 -88 -148c0 -12.667 7.16699 -22.167 21.5 -28.5
s39.166 -9.5 74.499 -9.5h80c48 0 83.5 -0.5 106.5 -1.5s50.5 -4.16699 82.5 -9.5s48 -29.666 48 -72.999c0 -167.333 -73 -294.666 -219 -381.999c-134 -80 -315.333 -120 -544 -120c-118.667 0 -209.334 23 -272.001 69c-68 50 -102 125.333 -102 226
c0 69.333 11.333 142 34 218c17.333 58 41.333 118.667 72 182c2 4 23 43.667 63 119l42 -17c-42 -74.667 -74.167 -144.5 -96.5 -209.5s-33.5 -122.5 -33.5 -172.5c0 -81.333 28.167 -142.333 84.5 -183s136.833 -61 241.5 -61c80 0 173 16 279 48
c90.667 27.333 172.334 60 245.001 98s109 66 109 84c0 12.667 -4.16699 21 -12.5 25s-21.833 6 -40.5 6h-234c-28.667 0 -54 10.333 -76 31s-33 47.334 -33 80.001c0 44.667 18.333 105.334 55 182.001c40 83.333 88.333 153 145 209c68 67.333 136.333 101 205 101
c44 0 78.667 -13.333 104 -40s38 -62 38 -106zM361.999 972.994c0 -16.667 -10.332 -31.667 -30.999 -45c-14 -8.66699 -35 -18 -63 -28l-186 -64c0 30.667 33.333 57.667 100 81c-20.667 10.667 -36.334 21 -47.001 31c-14 12.667 -21 26 -21 40
c0 20.667 17.667 49.667 53 87c39.333 41.333 74 62 104 62c13.333 0 24.833 -4.5 34.5 -13.5s14.5 -20.833 14.5 -35.5c0 -9.33301 -2 -18.833 -6 -28.5s-9.66699 -20.5 -17 -32.5c-20.667 18.667 -43 28 -67 28c-14.667 0 -29.167 -3 -43.5 -9s-21.5 -13 -21.5 -21
c0 -10 15.5 -23.667 46.5 -41s57.5 -26 79.5 -26c14.667 0 25.167 0.5 31.5 1.5s19.5 5.5 39.5 13.5z" />
    <glyph glyph-name="afii57415" unicode="&#x627;" horiz-adv-x="424" arabic-form="isolated" 
d="M338 548c0 -53.333 -9.66699 -104.997 -29 -154.997c-10 -26.667 -31.667 -69 -65 -127l-18 10c2 19.333 3.83301 41.666 5.5 66.999s2.5 42.333 2.5 51c0 69.333 -5.5 166.166 -16.5 290.499s-24.167 254.166 -39.5 389.499c-9.33301 82 -19.666 165.667 -30.999 251
c13.333 29.333 28.5 61 45.5 95l48.5 96c10.667 -76 24.167 -180 40.5 -312s29.166 -251 38.499 -357c12 -132 18 -231.667 18 -299z" />
    <glyph glyph-name="afii57416" unicode="&#x628;" horiz-adv-x="1461" arabic-form="isolated" 
d="M1461 293l-954 0.000976562c-128 0 -230 22.333 -306 67c-95.333 56 -143 143.667 -143 263c0 62 14 125.333 42 190c10 23.333 34 67.666 72 132.999l30 -19l-43 -92c-19.333 -47.333 -29 -89.666 -29 -126.999c0 -78.667 41.333 -139.667 124 -183
c74 -38.667 167.667 -58 281 -58h847v27c0 74.667 -9 135.5 -27 182.5s-48.667 87.167 -92 120.5l77 163c29.333 -36.667 47 -59.667 53 -69c45.333 -74.667 68 -183.334 68 -326.001v-272zM888 50.001l-78 -145l-162 84l74 146z" />
    <glyph glyph-name="afii57417" unicode="&#x629;" horiz-adv-x="578" arabic-form="isolated" 
d="M468 1227l-78 -144l-162 86l75 143zM238 1137l-76 -145l-162 84l74 145zM556 588c0 -94 -15.333 -164.667 -46 -212c-47.333 -73.333 -134 -110 -260 -110c-48.667 0 -89 9.66699 -121 29c-36.667 22 -55 53.333 -55 94c0 46.667 11.667 100.667 35 162l65 157l-15 4
l61 169c120.667 -63.333 192.667 -103.333 216 -120c80 -56 120 -113.667 120 -173zM469 510c0 25.333 -36.667 59 -110 101c-31.333 18 -65 35.667 -101 53c-30 -32.667 -48 -53 -54 -61c-18.667 -26 -28 -50.667 -28 -74c0 -34 9.5 -60.5 28.5 -79.5
s44.5 -28.5 76.5 -28.5c37.333 0 78 10.5 122 31.5s66 40.167 66 57.5z" />
    <glyph glyph-name="afii57418" unicode="&#x62a;" horiz-adv-x="1461" arabic-form="isolated" 
d="M991 1201l-78 -144l-162 86l75 143zM761 1111l-76 -145l-162 84l74 145zM1461 293l-954 0.000976562c-128 0 -230 22.333 -306 67c-95.333 56 -143 143.667 -143 263c0 62 14 125.333 42 190c10 23.333 34 67.666 72 132.999l30 -19l-43 -92
c-19.333 -47.333 -29 -89.666 -29 -126.999c0 -78.667 41.333 -139.667 124 -183c74 -38.667 167.667 -58 281 -58h847v27c0 74.667 -9 135.5 -27 182.5s-48.667 87.167 -92 120.5l77 163c29.333 -36.667 47 -59.667 53 -69c45.333 -74.667 68 -183.334 68 -326.001v-272z
" />
    <glyph glyph-name="afii57419" unicode="&#x62b;" horiz-adv-x="1461" arabic-form="isolated" 
d="M794 1379l-77 -146l-160 86l74 146zM991 1201l-78 -144l-162 86l75 143zM761 1111l-76 -145l-162 84l74 145zM1461 293l-954 0.000976562c-128 0 -230 22.333 -306 67c-95.333 56 -143 143.667 -143 263c0 62 14 125.333 42 190c10 23.333 34 67.666 72 132.999l30 -19
l-43 -92c-19.333 -47.333 -29 -89.666 -29 -126.999c0 -78.667 41.333 -139.667 124 -183c74 -38.667 167.667 -58 281 -58h847v27c0 74.667 -9 135.5 -27 182.5s-48.667 87.167 -92 120.5l77 163c29.333 -36.667 47 -59.667 53 -69c45.333 -74.667 68 -183.334 68 -326.001
v-272z" />
    <glyph glyph-name="afii57420" unicode="&#x62c;" horiz-adv-x="1153" arabic-form="isolated" 
d="M774 263l-85 -151l-157 90l77 145zM484 696c-13.333 0 -32.665 0.998047 -57.998 2.99805s-44.333 3 -57 3c-42.667 0 -90.667 -4 -144 -12c-34.667 -5.33301 -82 -14 -142 -26c26.667 75.333 51.667 124.333 75 147c50 49.333 134 74 252 74c44 0 134 -9.33301 270 -28
c63.333 -8.66699 118 -13 164 -13c19.333 0 47.666 2.33301 84.999 7s65.333 7 84 7l-37 -169c-140.667 -24 -260.334 -51.333 -359.001 -82c-146.667 -45.333 -261 -100.666 -343 -165.999c-102 -81.333 -153 -177.333 -153 -288c0 -143.333 74.667 -251 224 -323
c130 -62.667 303.667 -94 521 -94h184l6 -11l-226 -159h-58c-144 0 -263.667 13.333 -359 40c-114 32 -200.333 83.333 -259 154c-66.667 80.667 -100 187.334 -100 320.001c0 112 26.333 212.667 79 302c40 68 98.333 132.333 175 193c23.333 18.667 82 59 176 121z" />
    <glyph glyph-name="afii57421" unicode="&#x62d;" horiz-adv-x="1153" arabic-form="isolated" 
d="M484 696c-13.333 0 -32.665 0.998047 -57.998 2.99805s-44.333 3 -57 3c-42.667 0 -90.667 -4 -144 -12c-34.667 -5.33301 -82 -14 -142 -26c26.667 75.333 51.667 124.333 75 147c50 49.333 134 74 252 74c44 0 134 -9.33301 270 -28c63.333 -8.66699 118 -13 164 -13
c19.333 0 47.666 2.33301 84.999 7s65.333 7 84 7l-37 -169c-140.667 -24 -260.334 -51.333 -359.001 -82c-146.667 -45.333 -261 -100.666 -343 -165.999c-102 -81.333 -153 -177.333 -153 -288c0 -143.333 74.667 -251 224 -323c130 -62.667 303.667 -94 521 -94h184
l6 -11l-226 -159h-58c-144 0 -263.667 13.333 -359 40c-114 32 -200.333 83.333 -259 154c-66.667 80.667 -100 187.334 -100 320.001c0 112 26.333 212.667 79 302c40 68 98.333 132.333 175 193c23.333 18.667 82 59 176 121z" />
    <glyph glyph-name="afii57422" unicode="&#x62e;" horiz-adv-x="1153" arabic-form="isolated" 
d="M676 1224l-77 -145l-161 84l75 146zM484 696c-13.333 0 -32.665 0.998047 -57.998 2.99805s-44.333 3 -57 3c-42.667 0 -90.667 -4 -144 -12c-34.667 -5.33301 -82 -14 -142 -26c26.667 75.333 51.667 124.333 75 147c50 49.333 134 74 252 74c44 0 134 -9.33301 270 -28
c63.333 -8.66699 118 -13 164 -13c19.333 0 47.666 2.33301 84.999 7s65.333 7 84 7l-37 -169c-140.667 -24 -260.334 -51.333 -359.001 -82c-146.667 -45.333 -261 -100.666 -343 -165.999c-102 -81.333 -153 -177.333 -153 -288c0 -143.333 74.667 -251 224 -323
c130 -62.667 303.667 -94 521 -94h184l6 -11l-226 -159h-58c-144 0 -263.667 13.333 -359 40c-114 32 -200.333 83.333 -259 154c-66.667 80.667 -100 187.334 -100 320.001c0 112 26.333 212.667 79 302c40 68 98.333 132.333 175 193c23.333 18.667 82 59 176 121z" />
    <glyph glyph-name="afii57423" unicode="&#x62f;" horiz-adv-x="691" arabic-form="isolated" 
d="M691 293l-447.999 -0.000976562c-38 0 -72.167 11 -102.5 33s-45.5 48 -45.5 78c0 25.333 1.33301 48.333 4 69s7.66699 43.334 15 68.001h23c7.33301 -27.333 20.666 -47 39.999 -59c16 -10 38 -15 66 -15h387c0 119.333 -16.667 215.333 -50 288
c-41.333 90.667 -110.333 151 -207 181l15 194c115.333 -56.667 197 -147 245 -271c38.667 -100 58 -230.667 58 -392v-174z" />
    <glyph glyph-name="afii57424" unicode="&#x630;" horiz-adv-x="691" arabic-form="isolated" 
d="M425 1469l-78 -145l-160 86l73 145zM691 293l-447.999 -0.000976562c-38 0 -72.167 11 -102.5 33s-45.5 48 -45.5 78c0 25.333 1.33301 48.333 4 69s7.66699 43.334 15 68.001h23c7.33301 -27.333 20.666 -47 39.999 -59c16 -10 38 -15 66 -15h387
c0 119.333 -16.667 215.333 -50 288c-41.333 90.667 -110.333 151 -207 181l15 194c115.333 -56.667 197 -147 245 -271c38.667 -100 58 -230.667 58 -392v-174z" />
    <glyph glyph-name="afii57425" unicode="&#x631;" horiz-adv-x="1001" arabic-form="isolated" 
d="M1001 293c0 -73.333 -31.332 -149.331 -93.999 -227.998c-54.667 -69.333 -122.667 -129 -204 -179c-77.333 -48 -141 -72 -191 -72c-46 0 -95.667 6.66699 -149 20c-40.667 10 -89.334 25.667 -146.001 47l-143 54l17 40l137.5 -26.5
c47.667 -9 90.834 -13.5 129.501 -13.5c85.333 0 174.333 27.333 267 82c84 50 155.667 113.167 215 189.5s89 145.166 89 206.499c0 52.667 -15.333 108 -46 166c-24.667 46.667 -59.334 94.667 -104.001 144l57 157c54.667 -50.667 95 -101.334 121 -152.001
c29.333 -57.333 44 -121.333 44 -192v-243z" />
    <glyph glyph-name="afii57426" unicode="&#x632;" horiz-adv-x="1001" arabic-form="isolated" 
d="M851 1224l-77 -145l-161 84l75 146zM1001 293c0 -73.333 -31.332 -149.331 -93.999 -227.998c-54.667 -69.333 -122.667 -129 -204 -179c-77.333 -48 -141 -72 -191 -72c-46 0 -95.667 6.66699 -149 20c-40.667 10 -89.334 25.667 -146.001 47l-143 54l17 40l137.5 -26.5
c47.667 -9 90.834 -13.5 129.501 -13.5c85.333 0 174.333 27.333 267 82c84 50 155.667 113.167 215 189.5s89 145.166 89 206.499c0 52.667 -15.333 108 -46 166c-24.667 46.667 -59.334 94.667 -104.001 144l57 157c54.667 -50.667 95 -101.334 121 -152.001
c29.333 -57.333 44 -121.333 44 -192v-243z" />
    <glyph glyph-name="afii57427" unicode="&#x633;" horiz-adv-x="1682" arabic-form="isolated" 
d="M1682 293h-79.0029c-40 0 -75.167 5.5 -105.5 16.5s-61.166 28.5 -92.499 52.5c-28 -25.333 -53 -42.333 -75 -51c-31.333 -12 -77 -18 -137 -18h-123c0 -61.333 -14.667 -121 -44 -179c-38 -75.333 -96 -135 -174 -179c-98 -55.333 -220.667 -83 -368 -83
c-133.333 0 -235.333 23.333 -306 70c-77.333 51.333 -116 130 -116 236c0 57.333 7 115.333 21 174s33 117.667 57 177c14.667 36 40 91.333 76 166l40 -18c-46.667 -96 -77.5 -171.667 -92.5 -227s-22.5 -106 -22.5 -152c0 -82.667 29.5 -145.5 88.5 -188.5
s143.167 -64.5 252.5 -64.5c128 0 242.333 22.333 343 67c125.333 55.333 188 132.666 188 231.999c0 66.667 -12.333 130 -37 190c-19.333 47.333 -46.666 92.666 -81.999 135.999l83 205c33.333 -54.667 56 -103 68 -145c16.667 -59.333 25 -140.333 25 -243h123
c63.333 0 108.333 9.66699 135 29c23.333 16.667 35 42.334 35 77.001c0 19.333 -1.16699 38.833 -3.5 58.5s-5.83301 41.167 -10.5 64.5l40 60l16 -97c14.667 -65.333 34.334 -112.333 59.001 -141c27.333 -32 66 -48 116 -48c15.333 0 27.166 4.83301 35.499 14.5
s12.5 21.834 12.5 36.501c0 33.333 -10.333 69 -31 107c-15.333 28 -35.666 56 -60.999 84l67 109c31.333 -51.333 50.333 -86.333 57 -105c14.667 -42 22 -103 22 -183v-240z" />
    <glyph glyph-name="afii57428" unicode="&#x634;" horiz-adv-x="1682" arabic-form="isolated" 
d="M1406 1379l-77 -146l-160 86l74 146zM1603 1201l-78 -144l-162 86l75 143zM1373 1111l-76 -145l-162 84l74 145zM1682 293h-79.0029c-40 0 -75.167 5.5 -105.5 16.5s-61.166 28.5 -92.499 52.5c-28 -25.333 -53 -42.333 -75 -51c-31.333 -12 -77 -18 -137 -18h-123
c0 -61.333 -14.667 -121 -44 -179c-38 -75.333 -96 -135 -174 -179c-98 -55.333 -220.667 -83 -368 -83c-133.333 0 -235.333 23.333 -306 70c-77.333 51.333 -116 130 -116 236c0 57.333 7 115.333 21 174s33 117.667 57 177c14.667 36 40 91.333 76 166l40 -18
c-46.667 -96 -77.5 -171.667 -92.5 -227s-22.5 -106 -22.5 -152c0 -82.667 29.5 -145.5 88.5 -188.5s143.167 -64.5 252.5 -64.5c128 0 242.333 22.333 343 67c125.333 55.333 188 132.666 188 231.999c0 66.667 -12.333 130 -37 190
c-19.333 47.333 -46.666 92.666 -81.999 135.999l83 205c33.333 -54.667 56 -103 68 -145c16.667 -59.333 25 -140.333 25 -243h123c63.333 0 108.333 9.66699 135 29c23.333 16.667 35 42.334 35 77.001c0 19.333 -1.16699 38.833 -3.5 58.5s-5.83301 41.167 -10.5 64.5
l40 60l16 -97c14.667 -65.333 34.334 -112.333 59.001 -141c27.333 -32 66 -48 116 -48c15.333 0 27.166 4.83301 35.499 14.5s12.5 21.834 12.5 36.501c0 33.333 -10.333 69 -31 107c-15.333 28 -35.666 56 -60.999 84l67 109c31.333 -51.333 50.333 -86.333 57 -105
c14.667 -42 22 -103 22 -183v-240z" />
    <glyph glyph-name="afii57429" unicode="&#x635;" horiz-adv-x="2249" arabic-form="isolated" 
d="M2249 293l-1188 0.000976562c-20 -138.667 -68 -242.667 -144 -312c-94.667 -86 -239 -129 -433 -129c-133.333 0 -235.333 23.333 -306 70c-77.333 51.333 -116 130 -116 236c0 57.333 7 115.333 21 174s33 117.667 57 177c14.667 36 40 91.333 76 166l40 -18
c-46.667 -96 -77.5 -171.667 -92.5 -227s-22.5 -106 -22.5 -152c0 -82.667 29.5 -145.5 88.5 -188.5s143.167 -64.5 252.5 -64.5c128 0 242.333 22.333 343 67c125.333 55.333 188 132.666 188 231.999c0 66.667 -12.333 130 -37 190
c-19.333 47.333 -46.666 92.666 -81.999 135.999l83 205c33.333 -54.667 56 -103 68 -145c16.667 -59.333 25 -140.333 25 -243h18c79.333 0 153 12.667 221 38c58.667 22 120.334 56.667 185.001 104l177 122c54.667 34.667 103.667 59.334 147 74.001
c49.333 16.667 103.666 25 162.999 25c91.333 0 159.666 -26.333 205 -79c42 -48.667 63 -117 63 -205v-253zM2087 544.001c0 32.667 -20.5 58.166 -61.5 76.499s-88.833 27.5 -143.5 27.5c-48 0 -101.667 -10.667 -161 -32c-42 -15.333 -95.333 -39.666 -160 -72.999
l-145 -76h461c64 0 115 6.5 153 19.5s57 32.167 57 57.5z" />
    <glyph glyph-name="afii57430" unicode="&#x636;" horiz-adv-x="2249" arabic-form="isolated" 
d="M1583 1124l-76 -145l-162 84l74 146zM2249 293l-1188 0.000976562c-20 -138.667 -68 -242.667 -144 -312c-94.667 -86 -239 -129 -433 -129c-133.333 0 -235.333 23.333 -306 70c-77.333 51.333 -116 130 -116 236c0 57.333 7 115.333 21 174s33 117.667 57 177
c14.667 36 40 91.333 76 166l40 -18c-46.667 -96 -77.5 -171.667 -92.5 -227s-22.5 -106 -22.5 -152c0 -82.667 29.5 -145.5 88.5 -188.5s143.167 -64.5 252.5 -64.5c128 0 242.333 22.333 343 67c125.333 55.333 188 132.666 188 231.999c0 66.667 -12.333 130 -37 190
c-19.333 47.333 -46.666 92.666 -81.999 135.999l83 205c33.333 -54.667 56 -103 68 -145c16.667 -59.333 25 -140.333 25 -243h18c79.333 0 153 12.667 221 38c58.667 22 120.334 56.667 185.001 104l177 122c54.667 34.667 103.667 59.334 147 74.001
c49.333 16.667 103.666 25 162.999 25c91.333 0 159.666 -26.333 205 -79c42 -48.667 63 -117 63 -205v-253zM2087 544.001c0 32.667 -20.5 58.166 -61.5 76.499s-88.833 27.5 -143.5 27.5c-48 0 -101.667 -10.667 -161 -32c-42 -15.333 -95.333 -39.666 -160 -72.999
l-145 -76h461c64 0 115 6.5 153 19.5s57 32.167 57 57.5z" />
    <glyph glyph-name="afii57431" unicode="&#x637;" horiz-adv-x="1191" arabic-form="isolated" 
d="M1191 293h-1261v174l153 1c45.333 0 87.666 6 126.999 18c45.333 14 96.666 38.667 153.999 74c12 29.333 21.667 60.833 29 94.5s11 66.167 11 97.5c0 71.333 -6.66699 150 -20 236c-10 62.667 -25 136.334 -45 221.001c-10.667 44 -24.667 97.667 -42 161l-62 31
c4.66699 40 11.5 78.667 20.5 116s21.5 73.333 37.5 108c10.667 -31.333 35 -55.666 73 -72.999c31.333 -14 71.333 -23.333 120 -28c-6.66699 -68.667 -11.667 -112.334 -15 -131.001s-9.66602 -41.667 -18.999 -69c-4.66699 0.666992 -17 4 -37 10l-13 4
c23.333 -78 42.5 -158.167 57.5 -240.5s22.5 -151.5 22.5 -207.5c0 -47.333 -4.66699 -100 -14 -158c-3.33301 -20.667 -9.33301 -52.667 -18 -96c116.667 67.333 191.334 108.666 224.001 123.999c98.667 46.667 183.334 70 254.001 70c90 0 157.333 -26.333 202 -79
c40.667 -48 61 -116.333 61 -205v-253zM1033 544c0 34 -17.5 59.834 -52.5 77.501s-85.167 26.5 -150.5 26.5c-48.667 0 -104.667 -10.667 -168 -32c-52 -17.333 -107.333 -41.333 -166 -72c-43.333 -22.667 -88 -48.334 -134 -77.001h435c157.333 0 236 25.667 236 77z" />
    <glyph glyph-name="afii57432" unicode="&#x638;" horiz-adv-x="1191" arabic-form="isolated" 
d="M919 1224l-77 -145l-162 84l74 146zM1191 293h-1261v174l153 1c45.333 0 87.666 6 126.999 18c45.333 14 96.666 38.667 153.999 74c12 29.333 21.667 60.833 29 94.5s11 66.167 11 97.5c0 71.333 -6.66699 150 -20 236c-10 62.667 -25 136.334 -45 221.001
c-10.667 44 -24.667 97.667 -42 161l-62 31c4.66699 40 11.5 78.667 20.5 116s21.5 73.333 37.5 108c10.667 -31.333 35 -55.666 73 -72.999c31.333 -14 71.333 -23.333 120 -28c-6.66699 -68.667 -11.667 -112.334 -15 -131.001s-9.66602 -41.667 -18.999 -69
c-4.66699 0.666992 -17 4 -37 10l-13 4c23.333 -78 42.5 -158.167 57.5 -240.5s22.5 -151.5 22.5 -207.5c0 -47.333 -4.66699 -100 -14 -158c-3.33301 -20.667 -9.33301 -52.667 -18 -96c116.667 67.333 191.334 108.666 224.001 123.999
c98.667 46.667 183.334 70 254.001 70c90 0 157.333 -26.333 202 -79c40.667 -48 61 -116.333 61 -205v-253zM1033 544c0 34 -17.5 59.834 -52.5 77.501s-85.167 26.5 -150.5 26.5c-48.667 0 -104.667 -10.667 -168 -32c-52 -17.333 -107.333 -41.333 -166 -72
c-43.333 -22.667 -88 -48.334 -134 -77.001h435c157.333 0 236 25.667 236 77z" />
    <glyph glyph-name="afii57433" unicode="&#x639;" horiz-adv-x="1114" arabic-form="isolated" 
d="M1056 -267l-253.001 -166.998c-138.667 0 -246 5.66699 -322 17c-131.333 19.333 -232.666 58 -303.999 116c-90 72.667 -135 177 -135 313c0 82.667 12.667 157 38 223c20.667 54 50.334 105 89.001 153c18.667 22.667 51.334 57 98.001 103
c-64 32 -108.333 59.667 -133 83c-54.667 51.333 -82 116.333 -82 195c0 70.667 29.667 140 89 208c68 78 150.333 117 247 117c43.333 0 89.333 -12.667 138 -38c32.667 -16.667 73.667 -44.334 123 -83.001c-65.333 0 -132.333 -4.33301 -201 -13
c-88.667 -11.333 -160.334 -27.666 -215.001 -48.999c-66.667 -26 -100 -58 -100 -96c0 -40.667 38.333 -79.334 115 -116.001c64.667 -30.667 138 -52.334 220 -65.001c66.667 36 131.667 66.667 195 92c70.667 28 144 51.333 220 70l-42 -156
c-138.667 -54 -238.667 -95.333 -300 -124c-124 -58.667 -219 -118.667 -285 -180c-84.667 -78.667 -127 -163 -127 -253c0 -94 35.333 -168 106 -222c61.333 -46.667 151.666 -79.667 270.999 -99c94.667 -15.333 215.334 -23 362.001 -23
c31.333 0 62.666 0.333008 93.999 1l94 2v-9z" />
    <glyph glyph-name="afii57434" unicode="&#x63a;" horiz-adv-x="1114" arabic-form="isolated" 
d="M498 1424l-81 -144l-156 83l81 146zM1056 -267l-253.001 -166.998c-138.667 0 -246 5.66699 -322 17c-131.333 19.333 -232.666 58 -303.999 116c-90 72.667 -135 177 -135 313c0 82.667 12.667 157 38 223c20.667 54 50.334 105 89.001 153
c18.667 22.667 51.334 57 98.001 103c-64 32 -108.333 59.667 -133 83c-54.667 51.333 -82 116.333 -82 195c0 70.667 29.667 140 89 208c68 78 150.333 117 247 117c43.333 0 89.333 -12.667 138 -38c32.667 -16.667 73.667 -44.334 123 -83.001
c-65.333 0 -132.333 -4.33301 -201 -13c-88.667 -11.333 -160.334 -27.666 -215.001 -48.999c-66.667 -26 -100 -58 -100 -96c0 -40.667 38.333 -79.334 115 -116.001c64.667 -30.667 138 -52.334 220 -65.001c66.667 36 131.667 66.667 195 92c70.667 28 144 51.333 220 70
l-42 -156c-138.667 -54 -238.667 -95.333 -300 -124c-124 -58.667 -219 -118.667 -285 -180c-84.667 -78.667 -127 -163 -127 -253c0 -94 35.333 -168 106 -222c61.333 -46.667 151.666 -79.667 270.999 -99c94.667 -15.333 215.334 -23 362.001 -23
c31.333 0 62.666 0.333008 93.999 1l94 2v-9z" />
    <glyph glyph-name="afii57441" unicode="&#x641;" horiz-adv-x="1615" arabic-form="isolated" 
d="M1416 1309l-82 -148l-162 88l83 146zM1615 293l-917 0.000976562c-140.667 0 -254 8.66699 -340 26c-102.667 20.667 -180.334 55 -233.001 103c-57.333 52 -86 122.667 -86 212c0 59.333 17 128.666 51 207.999l55 121l40 -23c-28.667 -58 -47.667 -102.167 -57 -132.5
s-14 -57.833 -14 -82.5c0 -88 48 -153 144 -195s248.667 -63 458 -63h737c-78 21.333 -135.333 46 -172 74c-42 32 -63 71.667 -63 119c0 62 20.667 128.333 62 199c46.667 79.333 98.334 119 155.001 119c66 0 113.667 -39 143 -117c24.667 -65.333 37 -158.333 37 -279
v-289zM1511 596.001c0 58 -6.33398 102.669 -19.001 134.002c-15.333 37.333 -38.666 56 -69.999 56c-22.667 0 -39.5 -6.83301 -50.5 -20.5s-16.5 -32.834 -16.5 -57.501c0 -32.667 13.667 -57.334 41 -74.001c20 -12 58.333 -24.667 115 -38z" />
    <glyph glyph-name="afii57442" unicode="&#x642;" horiz-adv-x="1191" arabic-form="isolated" 
d="M1074 1314l-78 -144l-162 86l75 143zM844 1224l-76 -145l-162 84l74 145zM1191 242c0 -132 -63.3311 -232.669 -189.998 -302.002c-114 -62 -265.333 -93 -454 -93c-148.667 0 -263.667 26.667 -345 80c-88 58 -132 144 -132 258c0 78.667 12.667 161.334 38 248.001
c23.333 80 56.666 160 99.999 240l42 -18c-19.333 -46.667 -35.666 -88 -48.999 -124c-18 -49.333 -31 -91.666 -39 -126.999c-10 -44.667 -15 -88 -15 -130c0 -86.667 36.667 -150.667 110 -192c68 -38 168.333 -57 301 -57c142 0 266.333 23.333 373 70
c123.333 54 185 127 185 219c0 34 -1.16699 58.5 -3.5 73.5s-6.5 30.167 -12.5 45.5c-25.333 -12 -50.833 -21.5 -76.5 -28.5s-51.5 -10.5 -77.5 -10.5c-58.667 0 -106.334 13.333 -143.001 40c-44.667 32 -67 80.333 -67 145c0 75.333 19.333 147.333 58 216
c43.333 77.333 94.666 116 153.999 116c78 0 139.667 -53.333 185 -160c38.667 -90.667 58 -195.667 58 -315v-194zM1032 612.998c-17.333 41.333 -29.667 66.999 -37 76.999c-18.667 27.333 -42 41 -70 41c-32 0 -55.5 -7.66699 -70.5 -23s-22.5 -34.666 -22.5 -57.999
c0 -20.667 9.66699 -37 29 -49s41.333 -18 66 -18c17.333 0 33.5 2.5 48.5 7.5s33.833 12.5 56.5 22.5z" />
    <glyph glyph-name="afii57443" unicode="&#x643;" horiz-adv-x="1231" arabic-form="isolated" 
d="M865 904c0 -72.667 -24.335 -129 -73.002 -169s-117 -60 -205 -60c-40.667 0 -85.667 5.66699 -135 17c-30 6.66699 -74 19 -132 37l17 21c16 0 35.333 -1 58 -3c52.667 -4.66699 85.334 -7 98.001 -7c76.667 0 142.5 11.167 197.5 33.5s82.5 48.833 82.5 79.5
c0 14 -5.66699 26 -17 36s-24.666 15 -39.999 15c-17.333 0 -30.666 -0.333008 -39.999 -1l-70 -5c-16.667 0 -30.834 4.33301 -42.501 13s-17.5 23.334 -17.5 44.001c0 56 29.167 123 87.5 201s119.5 127.667 183.5 149l-19 -131c-46 -12.667 -81.333 -26.334 -106 -41.001
c-40 -23.333 -60 -51.333 -60 -84c0 -11.333 5.33301 -19.5 16 -24.5s23 -7.5 37 -7.5c12 0 22.667 0.666992 32 2l54 7c34.667 0 59 -9 73 -27s21 -49.667 21 -95zM1231 293l-738.001 -0.000976562c-159.333 0 -272.666 19 -339.999 57c-72 40.667 -108 110 -108 208
c0 58.667 15.667 125.334 47 200.001c8.66699 20.667 27 59 55 115l34 -20c-22.667 -52 -37.5 -92 -44.5 -120s-10.5 -54.667 -10.5 -80c0 -72.667 38.333 -123.667 115 -153c57.333 -22 141.333 -33 252 -33h637l-125 848l-52 25c0 46 4 89.167 12 129.5s20 79.5 36 117.5
l15 -11c0 -38.667 24 -67.667 72 -87l108 -40c0 -30.667 -3.83301 -65 -11.5 -103s-15.5 -67.667 -23.5 -89l-48 16l118 -784v-196z" />
    <glyph glyph-name="afii57444" unicode="&#x644;" horiz-adv-x="1037" arabic-form="isolated" 
d="M1037 417c0 -106.667 -24.999 -191.337 -74.999 -254.004c-44.667 -55.333 -110.334 -95 -197.001 -119c-73.333 -20 -166.333 -30 -279 -30c-128.667 0 -228.334 23.667 -299.001 71c-77.333 52 -116 129.667 -116 233c0 57.333 8.33301 117 25 179
c14 52.667 35.333 110.334 64 173.001c20.667 45.333 48.667 100 84 164l32 -19c-24.667 -44.667 -45.334 -84.667 -62.001 -120c-22 -47.333 -38.333 -89.666 -49 -126.999c-12.667 -45.333 -19 -89.333 -19 -132c0 -82 29.833 -144 89.5 -186s142.5 -63 248.5 -63
c112.667 0 217 19.333 313 58c105.333 42.667 158 93.667 158 153c0 64.667 -10.333 174.334 -31 329.001c-16 118.667 -35.667 251.334 -59 398.001l-33 194l-46 24c0 89.333 18.333 170.666 55 243.999h17c2.66699 -25.333 7.33398 -44.166 14.001 -56.499
s17.667 -21.5 33 -27.5c20.667 -8.66699 43.334 -19 68.001 -31l47 -23c0 -46.667 -1.66699 -80.667 -5 -102s-10 -51.333 -20 -90l-57 18c1.33301 -14.667 11 -81.667 29 -201c20.667 -139.333 36 -252.333 46 -339c16 -138.667 24 -244.667 24 -318z" />
    <glyph glyph-name="afii57445" unicode="&#x645;" horiz-adv-x="692" arabic-form="isolated" 
d="M692 293h-118.998c-110.667 0 -207.334 -10.333 -290.001 -31c-104.667 -26 -157 -63.333 -157 -112c0 -44 7.5 -91 22.5 -141l46 -152c15.667 -51.333 23.5 -98.333 23.5 -141c0 -25.333 -1.83301 -48.333 -5.5 -69s-10.167 -47.667 -19.5 -81l-51 166l-71 239
c-24 85.333 -36 136.666 -36 153.999c0 85.333 17.833 150.833 53.5 196.5s90.5 79.5 164.5 101.5c58.667 17.333 147 32 265 44c-42 42.667 -68 68 -78 76c-34 26.667 -68.333 40 -103 40c-22 0 -43 -6.66699 -63 -20c-16 -10.667 -35.333 -29 -58 -55l-46 29
c20 50 42.667 90 68 120c42 49.333 91.667 74 149 74c41.333 0 82.666 -15.333 123.999 -46c34 -25.333 68.667 -60.666 104 -105.999c17.333 -22 43 -59.333 77 -112v-174z" />
    <glyph glyph-name="afii57446" unicode="&#x646;" horiz-adv-x="1077" arabic-form="isolated" 
d="M705 1060l-75 -143l-156 86l72 139zM1077 293c0 -148.667 -43.666 -257.999 -130.999 -327.999c-94 -75.333 -245.667 -113 -455 -113c-133.333 0 -235.333 23.333 -306 70c-77.333 51.333 -116 130 -116 236c0 57.333 7 115.333 21 174s33 117.667 57 177
c14.667 36 40 91.333 76 166l40 -18c-46.667 -96 -77.5 -171.667 -92.5 -227s-22.5 -106 -22.5 -152c0 -82.667 29.5 -145.5 88.5 -188.5s143.167 -64.5 252.5 -64.5c126 0 237.667 22.333 335 67c120.667 55.333 181 132.666 181 231.999c0 68 -10 131.333 -30 190
c-17.333 52 -42 97.333 -74 136l83 205c35.333 -54 59.666 -109 72.999 -165s20 -130.333 20 -223v-174z" />
    <glyph glyph-name="afii57447" unicode="&#x647;" horiz-adv-x="578" arabic-form="isolated" 
d="M536 588c0 -94 -15.333 -164.667 -46 -212c-47.333 -73.333 -134 -110 -260 -110c-48.667 0 -89 9.66699 -121 29c-36.667 22 -55 53.333 -55 94c0 46.667 11.667 100.667 35 162l65 157l-15 4l61 169c120.667 -63.333 192.667 -103.333 216 -120
c80 -56 120 -113.667 120 -173zM449 510c0 25.333 -36.667 59 -110 101c-31.333 18 -65 35.667 -101 53c-30 -32.667 -48 -53 -54 -61c-18.667 -26 -28 -50.667 -28 -74c0 -34 9.5 -60.5 28.5 -79.5s44.5 -28.5 76.5 -28.5c37.333 0 78 10.5 122 31.5s66 40.167 66 57.5z
" />
    <glyph glyph-name="afii57448" unicode="&#x648;" horiz-adv-x="885" arabic-form="isolated" 
d="M885 353c0 -110 -40.667 -219.335 -122 -328.002c-90.667 -121.333 -195.334 -182 -314.001 -182c-44 0 -89.333 5 -136 15c-34 7.33301 -78.333 20 -133 38l-130 45l17 35l117.5 -27.5c41 -9.66699 77.833 -14.5 110.5 -14.5c81.333 0 158.333 20.667 231 62
c56.667 32.667 113.334 80 170.001 142c28.667 31.333 69.334 82.333 122.001 153c-90 0 -157.333 14.333 -202 43c-50.667 32.667 -76 86.334 -76 161.001c0 68.667 16 132.334 48 191.001c37.333 68 84.666 102 141.999 102c58 0 99.667 -33.667 125 -101
c20 -52.667 30 -126 30 -220v-114zM822 461.998c-14.667 64 -32.332 108.333 -52.999 133c-18 21.333 -40 32 -66 32c-18.667 0 -34.834 -6.16699 -48.501 -18.5s-20.5 -27.833 -20.5 -46.5c0 -32.667 14.667 -57.5 44 -74.5s77.333 -25.5 144 -25.5z" />
    <glyph glyph-name="afii57449" unicode="&#x649;" horiz-adv-x="1307" arabic-form="isolated" 
d="M1241 800c0 -21.333 -2.00098 -43.1719 -6.00098 -65.5049s-6.66699 -38.166 -8 -47.499c-23.333 30 -51.166 53.667 -83.499 71s-65.166 26 -98.499 26c-58 0 -119 -33.667 -183 -101c-58.667 -62 -88 -111.333 -88 -148c0 -12.667 7.16699 -22.167 21.5 -28.5
s39.166 -9.5 74.499 -9.5h80c48 0 83.5 -0.5 106.5 -1.5s50.5 -4.16699 82.5 -9.5s48 -29.666 48 -72.999c0 -167.333 -73 -294.666 -219 -381.999c-134 -80 -315.333 -120 -544 -120c-118.667 0 -209.334 23 -272.001 69c-68 50 -102 125.333 -102 226
c0 69.333 11.333 142 34 218c17.333 58 41.333 118.667 72 182c2 4 23 43.667 63 119l42 -17c-42 -74.667 -74.167 -144.5 -96.5 -209.5s-33.5 -122.5 -33.5 -172.5c0 -81.333 28.167 -142.333 84.5 -183s136.833 -61 241.5 -61c80 0 173 16 279 48
c90.667 27.333 172.334 60 245.001 98s109 66 109 84c0 12.667 -4.16699 21 -12.5 25s-21.833 6 -40.5 6h-234c-28.667 0 -54 10.333 -76 31s-33 47.334 -33 80.001c0 44.667 18.333 105.334 55 182.001c40 83.333 88.333 153 145 209c68 67.333 136.333 101 205 101
c44 0 78.667 -13.333 104 -40s38 -62 38 -106z" />
    <glyph glyph-name="afii57450" unicode="&#x64a;" horiz-adv-x="1307" arabic-form="isolated" 
d="M1241 800c0 -21.333 -2.00098 -43.1719 -6.00098 -65.5049s-6.66699 -38.166 -8 -47.499c-23.333 30 -51.166 53.667 -83.499 71s-65.166 26 -98.499 26c-58 0 -119 -33.667 -183 -101c-58.667 -62 -88 -111.333 -88 -148c0 -12.667 7.16699 -22.167 21.5 -28.5
s39.166 -9.5 74.499 -9.5h80c48 0 83.5 -0.5 106.5 -1.5s50.5 -4.16699 82.5 -9.5s48 -29.666 48 -72.999c0 -167.333 -73 -294.666 -219 -381.999c-134 -80 -315.333 -120 -544 -120c-118.667 0 -209.334 23 -272.001 69c-68 50 -102 125.333 -102 226
c0 69.333 11.333 142 34 218c17.333 58 41.333 118.667 72 182c2 4 23 43.667 63 119l42 -17c-42 -74.667 -74.167 -144.5 -96.5 -209.5s-33.5 -122.5 -33.5 -172.5c0 -81.333 28.167 -142.333 84.5 -183s136.833 -61 241.5 -61c80 0 173 16 279 48
c90.667 27.333 172.334 60 245.001 98s109 66 109 84c0 12.667 -4.16699 21 -12.5 25s-21.833 6 -40.5 6h-234c-28.667 0 -54 10.333 -76 31s-33 47.334 -33 80.001c0 44.667 18.333 105.334 55 182.001c40 83.333 88.333 153 145 209c68 67.333 136.333 101 205 101
c44 0 78.667 -13.333 104 -40s38 -62 38 -106zM863.999 -191.006l-78 -144l-162 86l75 143zM633.999 -281.006l-76 -145l-162 84l74 145z" />
    <glyph glyph-name="uni0671" unicode="&#x671;" horiz-adv-x="424" arabic-form="isolated" 
d="M338 548c0 -53.333 -9.66699 -104.997 -29 -154.997c-10 -26.667 -31.667 -69 -65 -127l-18 10c2 19.333 3.83301 41.666 5.5 66.999s2.5 42.333 2.5 51c0 69.333 -5.5 166.166 -16.5 290.499s-24.167 254.166 -39.5 389.499c-9.33301 82 -19.666 165.667 -30.999 251
c13.333 29.333 28.5 61 45.5 95l48.5 96c10.667 -76 24.167 -180 40.5 -312s29.166 -251 38.499 -357c12 -132 18 -231.667 18 -299zM431 1725c0 -35.333 -16 -67.668 -48 -97.001c-34.667 -32 -76 -48 -124 -48h-167c-20.667 0 -31 -15 -31 -45
c0 -3.33301 0.666992 -9.33301 2 -18c0.666992 -8 0.666992 -14 0 -18c-32 32.667 -48 66.334 -48 101.001c0 44 25.333 66 76 66h24c78.667 106 156.667 159 234 159c54.667 0 82 -33.333 82 -100zM341 1726c0 25.333 -10.666 38 -31.999 38
c-36.667 0 -83.334 -32.667 -140.001 -98h82c60 0 90 20 90 60z" />
    <glyph glyph-name="uni0677" unicode="&#x677;" horiz-adv-x="885" arabic-form="isolated" 
d="M885 353c0 -110 -40.667 -219.335 -122 -328.002c-90.667 -121.333 -195.334 -182 -314.001 -182c-44 0 -89.333 5 -136 15c-34 7.33301 -78.333 20 -133 38l-130 45l17 35l117.5 -27.5c41 -9.66699 77.833 -14.5 110.5 -14.5c81.333 0 158.333 20.667 231 62
c56.667 32.667 113.334 80 170.001 142c28.667 31.333 69.334 82.333 122.001 153c-90 0 -157.333 14.333 -202 43c-50.667 32.667 -76 86.334 -76 161.001c0 68.667 16 132.334 48 191.001c37.333 68 84.666 102 141.999 102c58 0 99.667 -33.667 125 -101
c20 -52.667 30 -126 30 -220v-114zM822 461.998c-14.667 64 -32.332 108.333 -52.999 133c-18 21.333 -40 32 -66 32c-18.667 0 -34.834 -6.16699 -48.501 -18.5s-20.5 -27.833 -20.5 -46.5c0 -32.667 14.667 -57.5 44 -74.5s77.333 -25.5 144 -25.5zM1046 1059
c0 -16.667 -10.332 -31.667 -30.999 -45c-14 -8.66699 -35 -18 -63 -28l-186 -64c0 30.667 33.333 57.667 100 81c-20.667 10.667 -36.334 21 -47.001 31c-14 12.667 -21 26 -21 40c0 20.667 17.667 49.667 53 87c39.333 41.333 74 62 104 62
c13.333 0 24.833 -4.5 34.5 -13.5s14.5 -20.833 14.5 -35.5c0 -9.33301 -2 -18.833 -6 -28.5s-9.66699 -20.5 -17 -32.5c-20.667 18.667 -43 28 -67 28c-14.667 0 -29.167 -3 -43.5 -9s-21.5 -13 -21.5 -21c0 -10 15.5 -23.667 46.5 -41s57.5 -26 79.5 -26
c14.667 0 25.167 0.5 31.5 1.5s19.5 5.5 39.5 13.5zM629.003 992.998c0 -11.333 -0.999023 -22.998 -2.99902 -34.998l-6 -36l-83 50c-33.333 -36.667 -56 -61 -68 -73c-49.333 -48 -90.666 -72 -123.999 -72h-73c35.333 16.667 76.666 43.667 123.999 81
c42.667 34 75 64 97 90c-20.667 12.667 -36.334 26 -47.001 40c-13.333 17.333 -20 36.333 -20 57c0 44 12.833 82.833 38.5 116.5s53.5 50.5 83.5 50.5c17.333 0 33 -9.33301 47 -28s21 -41.334 21 -68.001c0 -12.667 -1.83301 -25.834 -5.5 -39.501
s-12.167 -38.834 -25.5 -75.501c10.667 -9.33301 21.667 -18.333 33 -27c7.33301 -7.33301 11 -17.666 11 -30.999zM554.004 1106c0 18 -6.33203 34.6689 -18.999 50.002s-25 23 -37 23c-6.66699 0 -11.834 -2.33301 -15.501 -7s-5.5 -9.33398 -5.5 -14.001
c0 -14.667 8.33301 -30 25 -46l44 -34c5.33301 13.333 8 22.666 8 27.999z" />
    <glyph glyph-name="uni0679" unicode="&#x679;" horiz-adv-x="1461" arabic-form="isolated" 
d="M1461 293l-954 0.000976562c-128 0 -230 22.333 -306 67c-95.333 56 -143 143.667 -143 263c0 62 14 125.333 42 190c10 23.333 34 67.666 72 132.999l30 -19l-43 -92c-19.333 -47.333 -29 -89.666 -29 -126.999c0 -78.667 41.333 -139.667 124 -183
c74 -38.667 167.667 -58 281 -58h847v27c0 74.667 -9 135.5 -27 182.5s-48.667 87.167 -92 120.5l77 163c29.333 -36.667 47 -59.667 53 -69c45.333 -74.667 68 -183.334 68 -326.001v-272zM1051 1062h-600.998v83h73c42 0 86.667 14.667 134 44c12.667 30.667 19 61 19 91
c0 32.667 -3.33301 70.334 -10 113.001c-5.33301 32.667 -12.333 67.667 -21 105c-4.66699 20 -11.334 45.667 -20.001 77l-29 14c5.33301 43.333 14.333 79 27 107c5.33301 -16 18.666 -28.333 39.999 -37c13.333 -5.33301 30.666 -9 51.999 -11
c-1.33301 -20.667 -6.66602 -52.334 -15.999 -95.001c-2.66699 0.666992 -8.66699 2 -18 4l-6 2c25.333 -84.667 38 -155.667 38 -213c0 -21.333 -2.33301 -46.333 -7 -75c-1.33301 -8.66699 -4 -24 -8 -46c54 31.333 89.667 51 107 59c48 22.667 88 34 120 34
c84 0 126 -45.333 126 -136v-120zM975.002 1181c0 33.333 -32 50 -96 50c-42 0 -95 -16.667 -159 -50c-26 -13.333 -47.333 -25.333 -64 -36h207c74.667 0 112 12 112 36z" />
    <glyph glyph-name="uni067A" unicode="&#x67a;" horiz-adv-x="1461" arabic-form="isolated" 
d="M1461 293l-954 0.000976562c-128 0 -230 22.333 -306 67c-95.333 56 -143 143.667 -143 263c0 62 14 125.333 42 190c10 23.333 34 67.666 72 132.999l30 -19l-43 -92c-19.333 -47.333 -29 -89.666 -29 -126.999c0 -78.667 41.333 -139.667 124 -183
c74 -38.667 167.667 -58 281 -58h847v27c0 74.667 -9 135.5 -27 182.5s-48.667 87.167 -92 120.5l77 163c29.333 -36.667 47 -59.667 53 -69c45.333 -74.667 68 -183.334 68 -326.001v-272zM845 1456l-74 -145l-164 84l76 145zM891 1206l-74 -146l-163 86l77 146z" />
    <glyph glyph-name="uni067B" unicode="&#x67b;" horiz-adv-x="1461" arabic-form="isolated" 
d="M1461 293l-954 0.000976562c-128 0 -230 22.333 -306 67c-95.333 56 -143 143.667 -143 263c0 62 14 125.333 42 190c10 23.333 34 67.666 72 132.999l30 -19l-43 -92c-19.333 -47.333 -29 -89.666 -29 -126.999c0 -78.667 41.333 -139.667 124 -183
c74 -38.667 167.667 -58 281 -58h847v27c0 74.667 -9 135.5 -27 182.5s-48.667 87.167 -92 120.5l77 163c29.333 -36.667 47 -59.667 53 -69c45.333 -74.667 68 -183.334 68 -326.001v-272zM905 56.001l-74 -145l-164 84l76 145zM951 -193.999l-74 -146l-163 86l77 146z" />
    <glyph glyph-name="afii57506" unicode="&#x67e;" horiz-adv-x="1461" arabic-form="isolated" 
d="M1461 293l-954 0.000976562c-128 0 -230 22.333 -306 67c-95.333 56 -143 143.667 -143 263c0 62 14 125.333 42 190c10 23.333 34 67.666 72 132.999l30 -19l-43 -92c-19.333 -47.333 -29 -89.666 -29 -126.999c0 -78.667 41.333 -139.667 124 -183
c74 -38.667 167.667 -58 281 -58h847v27c0 74.667 -9 135.5 -27 182.5s-48.667 87.167 -92 120.5l77 163c29.333 -36.667 47 -59.667 53 -69c45.333 -74.667 68 -183.334 68 -326.001v-272zM1018 56.001l-74 -145l-164 84l76 145zM984 -212.999l-74 -146l-163 86l77 146z
M790 -36.999l-75 -143l-165 85l78 144z" />
    <glyph glyph-name="uni067F" unicode="&#x67f;" horiz-adv-x="1461" arabic-form="isolated" 
d="M1461 293l-954 0.000976562c-128 0 -230 22.333 -306 67c-95.333 56 -143 143.667 -143 263c0 62 14 125.333 42 190c10 23.333 34 67.666 72 132.999l30 -19l-43 -92c-19.333 -47.333 -29 -89.666 -29 -126.999c0 -78.667 41.333 -139.667 124 -183
c74 -38.667 167.667 -58 281 -58h847v27c0 74.667 -9 135.5 -27 182.5s-48.667 87.167 -92 120.5l77 163c29.333 -36.667 47 -59.667 53 -69c45.333 -74.667 68 -183.334 68 -326.001v-272zM959 1454l-77 -146l-160 86l74 146zM1007 1204l-78 -144l-162 86l75 143zM777 1114
l-76 -145l-162 84l74 145zM653 1217l-160 90l70 144l167 -90z" />
    <glyph glyph-name="uni0680" unicode="&#x680;" horiz-adv-x="1461" arabic-form="isolated" 
d="M1461 293l-954 0.000976562c-128 0 -230 22.333 -306 67c-95.333 56 -143 143.667 -143 263c0 62 14 125.333 42 190c10 23.333 34 67.666 72 132.999l30 -19l-43 -92c-19.333 -47.333 -29 -89.666 -29 -126.999c0 -78.667 41.333 -139.667 124 -183
c74 -38.667 167.667 -58 281 -58h847v27c0 74.667 -9 135.5 -27 182.5s-48.667 87.167 -92 120.5l77 163c29.333 -36.667 47 -59.667 53 -69c45.333 -74.667 68 -183.334 68 -326.001v-272zM999 54.001l-77 -146l-160 86l74 146zM1047 -195.999l-78 -144l-162 86l75 143z
M817 -285.999l-76 -145l-162 84l74 145zM693 -182.999l-160 90l70 144l167 -90z" />
    <glyph glyph-name="uni0683" unicode="&#x683;" horiz-adv-x="1153" arabic-form="isolated" 
d="M484 696c-13.333 0 -32.665 0.998047 -57.998 2.99805s-44.333 3 -57 3c-42.667 0 -90.667 -4 -144 -12c-34.667 -5.33301 -82 -14 -142 -26c26.667 75.333 51.667 124.333 75 147c50 49.333 134 74 252 74c44 0 134 -9.33301 270 -28c63.333 -8.66699 118 -13 164 -13
c19.333 0 47.666 2.33301 84.999 7s65.333 7 84 7l-37 -169c-140.667 -24 -260.334 -51.333 -359.001 -82c-146.667 -45.333 -261 -100.666 -343 -165.999c-102 -81.333 -153 -177.333 -153 -288c0 -143.333 74.667 -251 224 -323c130 -62.667 303.667 -94 521 -94h184
l6 -11l-226 -159h-58c-144 0 -263.667 13.333 -359 40c-114 32 -200.333 83.333 -259 154c-66.667 80.667 -100 187.334 -100 320.001c0 112 26.333 212.667 79 302c40 68 98.333 132.333 175 193c23.333 18.667 82 59 176 121zM864.001 255.998l-74 -145l-164 84l76 145z
M636.001 162.998l-75 -143l-165 85l78 144z" />
    <glyph glyph-name="uni0684" unicode="&#x684;" horiz-adv-x="1153" arabic-form="isolated" 
d="M484 696c-13.333 0 -32.665 0.998047 -57.998 2.99805s-44.333 3 -57 3c-42.667 0 -90.667 -4 -144 -12c-34.667 -5.33301 -82 -14 -142 -26c26.667 75.333 51.667 124.333 75 147c50 49.333 134 74 252 74c44 0 134 -9.33301 270 -28c63.333 -8.66699 118 -13 164 -13
c19.333 0 47.666 2.33301 84.999 7s65.333 7 84 7l-37 -169c-140.667 -24 -260.334 -51.333 -359.001 -82c-146.667 -45.333 -261 -100.666 -343 -165.999c-102 -81.333 -153 -177.333 -153 -288c0 -143.333 74.667 -251 224 -323c130 -62.667 303.667 -94 521 -94h184
l6 -11l-226 -159h-58c-144 0 -263.667 13.333 -359 40c-114 32 -200.333 83.333 -259 154c-66.667 80.667 -100 187.334 -100 320.001c0 112 26.333 212.667 79 302c40 68 98.333 132.333 175 193c23.333 18.667 82 59 176 121zM725.001 315.998l-74 -145l-164 84l76 145z
M771.001 65.998l-74 -146l-163 86l77 146z" />
    <glyph glyph-name="afii57507" unicode="&#x686;" horiz-adv-x="1153" arabic-form="isolated" 
d="M484 696c-13.333 0 -32.665 0.998047 -57.998 2.99805s-44.333 3 -57 3c-42.667 0 -90.667 -4 -144 -12c-34.667 -5.33301 -82 -14 -142 -26c26.667 75.333 51.667 124.333 75 147c50 49.333 134 74 252 74c44 0 134 -9.33301 270 -28c63.333 -8.66699 118 -13 164 -13
c19.333 0 47.666 2.33301 84.999 7s65.333 7 84 7l-37 -169c-140.667 -24 -260.334 -51.333 -359.001 -82c-146.667 -45.333 -261 -100.666 -343 -165.999c-102 -81.333 -153 -177.333 -153 -288c0 -143.333 74.667 -251 224 -323c130 -62.667 303.667 -94 521 -94h184
l6 -11l-226 -159h-58c-144 0 -263.667 13.333 -359 40c-114 32 -200.333 83.333 -259 154c-66.667 80.667 -100 187.334 -100 320.001c0 112 26.333 212.667 79 302c40 68 98.333 132.333 175 193c23.333 18.667 82 59 176 121zM856.001 359.998l-74 -145l-164 84l76 145z
M822.001 90.998l-74 -146l-163 86l77 146zM628.001 266.998l-75 -143l-165 85l78 144z" />
    <glyph glyph-name="uni0687" unicode="&#x687;" horiz-adv-x="1153" arabic-form="isolated" 
d="M484 696c-13.333 0 -32.665 0.998047 -57.998 2.99805s-44.333 3 -57 3c-42.667 0 -90.667 -4 -144 -12c-34.667 -5.33301 -82 -14 -142 -26c26.667 75.333 51.667 124.333 75 147c50 49.333 134 74 252 74c44 0 134 -9.33301 270 -28c63.333 -8.66699 118 -13 164 -13
c19.333 0 47.666 2.33301 84.999 7s65.333 7 84 7l-37 -169c-140.667 -24 -260.334 -51.333 -359.001 -82c-146.667 -45.333 -261 -100.666 -343 -165.999c-102 -81.333 -153 -177.333 -153 -288c0 -143.333 74.667 -251 224 -323c130 -62.667 303.667 -94 521 -94h184
l6 -11l-226 -159h-58c-144 0 -263.667 13.333 -359 40c-114 32 -200.333 83.333 -259 154c-66.667 80.667 -100 187.334 -100 320.001c0 112 26.333 212.667 79 302c40 68 98.333 132.333 175 193c23.333 18.667 82 59 176 121zM879.001 393.998l-77 -146l-160 86l74 146z
M927.001 143.998l-78 -144l-162 86l75 143zM697.001 53.998l-76 -145l-162 84l74 145zM573.001 156.998l-160 90l70 144l167 -90z" />
    <glyph glyph-name="uni0688" unicode="&#x688;" horiz-adv-x="691" arabic-form="isolated" 
d="M691 293l-447.999 -0.000976562c-38 0 -72.167 11 -102.5 33s-45.5 48 -45.5 78c0 25.333 1.33301 48.333 4 69s7.66699 43.334 15 68.001h23c7.33301 -27.333 20.666 -47 39.999 -59c16 -10 38 -15 66 -15h387c0 119.333 -16.667 215.333 -50 288
c-41.333 90.667 -110.333 151 -207 181l15 194c115.333 -56.667 197 -147 245 -271c38.667 -100 58 -230.667 58 -392v-174zM651.001 1191h-600.998v83h73c42 0 86.667 14.667 134 44c12.667 30.667 19 61 19 91c0 32.667 -3.33301 70.334 -10 113.001
c-5.33301 32.667 -12.333 67.667 -21 105c-4.66699 20 -11.334 45.667 -20.001 77l-29 14c5.33301 43.333 14.333 79 27 107c5.33301 -16 18.666 -28.333 39.999 -37c13.333 -5.33301 30.666 -9 51.999 -11c-1.33301 -20.667 -6.66602 -52.334 -15.999 -95.001
c-2.66699 0.666992 -8.66699 2 -18 4l-6 2c25.333 -84.667 38 -155.667 38 -213c0 -21.333 -2.33301 -46.333 -7 -75c-1.33301 -8.66699 -4 -24 -8 -46c54 31.333 89.667 51 107 59c48 22.667 88 34 120 34c84 0 126 -45.333 126 -136v-120zM575.003 1310
c0 33.333 -32 50 -96 50c-42 0 -95 -16.667 -159 -50c-26 -13.333 -47.333 -25.333 -64 -36h207c74.667 0 112 12 112 36z" />
    <glyph glyph-name="uni068C" unicode="&#x68c;" horiz-adv-x="691" arabic-form="isolated" 
d="M691 293l-447.999 -0.000976562c-38 0 -72.167 11 -102.5 33s-45.5 48 -45.5 78c0 25.333 1.33301 48.333 4 69s7.66699 43.334 15 68.001h23c7.33301 -27.333 20.666 -47 39.999 -59c16 -10 38 -15 66 -15h387c0 119.333 -16.667 215.333 -50 288
c-41.333 90.667 -110.333 151 -207 181l15 194c115.333 -56.667 197 -147 245 -271c38.667 -100 58 -230.667 58 -392v-174zM564.001 1456l-74 -145l-164 84l76 145zM336.001 1363l-75 -143l-165 85l78 144z" />
    <glyph glyph-name="uni068D" unicode="&#x68d;" horiz-adv-x="691" arabic-form="isolated" 
d="M691 293l-447.999 -0.000976562c-38 0 -72.167 11 -102.5 33s-45.5 48 -45.5 78c0 25.333 1.33301 48.333 4 69s7.66699 43.334 15 68.001h23c7.33301 -27.333 20.666 -47 39.999 -59c16 -10 38 -15 66 -15h387c0 119.333 -16.667 215.333 -50 288
c-41.333 90.667 -110.333 151 -207 181l15 194c115.333 -56.667 197 -147 245 -271c38.667 -100 58 -230.667 58 -392v-174zM624.001 55.999l-74 -145l-164 84l76 145zM396.001 -37.001l-75 -143l-165 85l78 144z" />
    <glyph glyph-name="uni068E" unicode="&#x68e;" horiz-adv-x="691" arabic-form="isolated" 
d="M691 293l-447.999 -0.000976562c-38 0 -72.167 11 -102.5 33s-45.5 48 -45.5 78c0 25.333 1.33301 48.333 4 69s7.66699 43.334 15 68.001h23c7.33301 -27.333 20.666 -47 39.999 -59c16 -10 38 -15 66 -15h387c0 119.333 -16.667 215.333 -50 288
c-41.333 90.667 -110.333 151 -207 181l15 194c115.333 -56.667 197 -147 245 -271c38.667 -100 58 -230.667 58 -392v-174zM398.001 1654l-77 -146l-160 86l74 146zM595.001 1476l-78 -144l-162 86l75 143zM365.001 1386l-76 -145l-162 84l74 145z" />
    <glyph glyph-name="uni0691" unicode="&#x691;" horiz-adv-x="1001" arabic-form="isolated" 
d="M1001 293c0 -73.333 -31.332 -149.331 -93.999 -227.998c-54.667 -69.333 -122.667 -129 -204 -179c-77.333 -48 -141 -72 -191 -72c-46 0 -95.667 6.66699 -149 20c-40.667 10 -89.334 25.667 -146.001 47l-143 54l17 40l137.5 -26.5
c47.667 -9 90.834 -13.5 129.501 -13.5c85.333 0 174.333 27.333 267 82c84 50 155.667 113.167 215 189.5s89 145.166 89 206.499c0 52.667 -15.333 108 -46 166c-24.667 46.667 -59.334 94.667 -104.001 144l57 157c54.667 -50.667 95 -101.334 121 -152.001
c29.333 -57.333 44 -121.333 44 -192v-243zM951.001 1062h-600.998v83h73c42 0 86.667 14.667 134 44c12.667 30.667 19 61 19 91c0 32.667 -3.33301 70.334 -10 113.001c-5.33301 32.667 -12.333 67.667 -21 105c-4.66699 20 -11.334 45.667 -20.001 77l-29 14
c5.33301 43.333 14.333 79 27 107c5.33301 -16 18.666 -28.333 39.999 -37c13.333 -5.33301 30.666 -9 51.999 -11c-1.33301 -20.667 -6.66602 -52.334 -15.999 -95.001c-2.66699 0.666992 -8.66699 2 -18 4l-6 2c25.333 -84.667 38 -155.667 38 -213
c0 -21.333 -2.33301 -46.333 -7 -75c-1.33301 -8.66699 -4 -24 -8 -46c54 31.333 89.667 51 107 59c48 22.667 88 34 120 34c84 0 126 -45.333 126 -136v-120zM875.003 1181c0 33.333 -32 50 -96 50c-42 0 -95 -16.667 -159 -50c-26 -13.333 -47.333 -25.333 -64 -36h207
c74.667 0 112 12 112 36z" />
    <glyph glyph-name="afii57508" unicode="&#x698;" horiz-adv-x="1001" arabic-form="isolated" 
d="M1001 293c0 -73.333 -31.332 -149.331 -93.999 -227.998c-54.667 -69.333 -122.667 -129 -204 -179c-77.333 -48 -141 -72 -191 -72c-46 0 -95.667 6.66699 -149 20c-40.667 10 -89.334 25.667 -146.001 47l-143 54l17 40l137.5 -26.5
c47.667 -9 90.834 -13.5 129.501 -13.5c85.333 0 174.333 27.333 267 82c84 50 155.667 113.167 215 189.5s89 145.166 89 206.499c0 52.667 -15.333 108 -46 166c-24.667 46.667 -59.334 94.667 -104.001 144l57 157c54.667 -50.667 95 -101.334 121 -152.001
c29.333 -57.333 44 -121.333 44 -192v-243zM778.001 1395l-77 -146l-160 86l74 146zM975.001 1217l-78 -144l-162 86l75 143zM745.001 1127l-76 -145l-162 84l74 145z" />
    <glyph glyph-name="uni06A4" unicode="&#x6a4;" horiz-adv-x="1615" arabic-form="isolated" 
d="M1615 293l-917 0.000976562c-140.667 0 -254 8.66699 -340 26c-102.667 20.667 -180.334 55 -233.001 103c-57.333 52 -86 122.667 -86 212c0 59.333 17 128.666 51 207.999l55 121l40 -23c-28.667 -58 -47.667 -102.167 -57 -132.5s-14 -57.833 -14 -82.5
c0 -88 48 -153 144 -195s248.667 -63 458 -63h737c-78 21.333 -135.333 46 -172 74c-42 32 -63 71.667 -63 119c0 62 20.667 128.333 62 199c46.667 79.333 98.334 119 155.001 119c66 0 113.667 -39 143 -117c24.667 -65.333 37 -158.333 37 -279v-289zM1511 596.001
c0 58 -6.33398 102.669 -19.001 134.002c-15.333 37.333 -38.666 56 -69.999 56c-22.667 0 -39.5 -6.83301 -50.5 -20.5s-16.5 -32.834 -16.5 -57.501c0 -32.667 13.667 -57.334 41 -74.001c20 -12 58.333 -24.667 115 -38zM1398 1494l-77 -146l-160 86l74 146zM1595 1316
l-78 -144l-162 86l75 143zM1365 1226l-76 -145l-162 84l74 145z" />
    <glyph glyph-name="uni06A6" unicode="&#x6a6;" horiz-adv-x="1615" arabic-form="isolated" 
d="M1615 293l-917 0.000976562c-140.667 0 -254 8.66699 -340 26c-102.667 20.667 -180.334 55 -233.001 103c-57.333 52 -86 122.667 -86 212c0 59.333 17 128.666 51 207.999l55 121l40 -23c-28.667 -58 -47.667 -102.167 -57 -132.5s-14 -57.833 -14 -82.5
c0 -88 48 -153 144 -195s248.667 -63 458 -63h737c-78 21.333 -135.333 46 -172 74c-42 32 -63 71.667 -63 119c0 62 20.667 128.333 62 199c46.667 79.333 98.334 119 155.001 119c66 0 113.667 -39 143 -117c24.667 -65.333 37 -158.333 37 -279v-289zM1511 596.001
c0 58 -6.33398 102.669 -19.001 134.002c-15.333 37.333 -38.666 56 -69.999 56c-22.667 0 -39.5 -6.83301 -50.5 -20.5s-16.5 -32.834 -16.5 -57.501c0 -32.667 13.667 -57.334 41 -74.001c20 -12 58.333 -24.667 115 -38zM1559 1554l-77 -146l-160 86l74 146zM1607 1304
l-78 -144l-162 86l75 143zM1377 1214l-76 -145l-162 84l74 145zM1253 1317l-160 90l70 144l167 -90z" />
    <glyph glyph-name="afii57567" unicode="&#x6a9;" horiz-adv-x="1663" arabic-form="isolated" 
d="M1547 467c-46.667 70.667 -100 132.166 -160 184.499s-141 108.833 -243 169.5l-33 -31l-118 90c-41.333 34.667 -62 61.667 -62 81c0 114.667 28 204.667 84 270c52 60 141.667 114 269 162l282 110v-173l-209 -70c-83.333 -27.333 -150.666 -52.333 -201.999 -75
c-65.333 -28.667 -98 -50.667 -98 -66s21.333 -39 64 -71l81 -60c101.333 -76.667 189.666 -157 264.999 -241c81.333 -90 146.666 -183.333 195.999 -280v-174h-1195c-159.333 0 -272.666 19 -339.999 57c-72 40.667 -108 110 -108 208c0 58.667 15.667 125.334 47 200.001
c8.66699 20.667 27 59 55 115l34 -20c-22.667 -52 -37.5 -92 -44.5 -120s-10.5 -54.667 -10.5 -80c0 -72.667 38.333 -123.667 115 -153c57.333 -22 141.333 -33 252 -33h1079z" />
    <glyph glyph-name="uni06AD" unicode="&#x6ad;" horiz-adv-x="1231" arabic-form="isolated" 
d="M865 904c0 -72.667 -24.335 -129 -73.002 -169s-117 -60 -205 -60c-40.667 0 -85.667 5.66699 -135 17c-30 6.66699 -74 19 -132 37l17 21c16 0 35.333 -1 58 -3c52.667 -4.66699 85.334 -7 98.001 -7c76.667 0 142.5 11.167 197.5 33.5s82.5 48.833 82.5 79.5
c0 14 -5.66699 26 -17 36s-24.666 15 -39.999 15c-17.333 0 -30.666 -0.333008 -39.999 -1l-70 -5c-16.667 0 -30.834 4.33301 -42.501 13s-17.5 23.334 -17.5 44.001c0 56 29.167 123 87.5 201s119.5 127.667 183.5 149l-19 -131c-46 -12.667 -81.333 -26.334 -106 -41.001
c-40 -23.333 -60 -51.333 -60 -84c0 -11.333 5.33301 -19.5 16 -24.5s23 -7.5 37 -7.5c12 0 22.667 0.666992 32 2l54 7c34.667 0 59 -9 73 -27s21 -49.667 21 -95zM1231 293l-738.001 -0.000976562c-159.333 0 -272.666 19 -339.999 57c-72 40.667 -108 110 -108 208
c0 58.667 15.667 125.334 47 200.001c8.66699 20.667 27 59 55 115l34 -20c-22.667 -52 -37.5 -92 -44.5 -120s-10.5 -54.667 -10.5 -80c0 -72.667 38.333 -123.667 115 -153c57.333 -22 141.333 -33 252 -33h637l-125 848l-52 25c0 46 4 89.167 12 129.5s20 79.5 36 117.5
l15 -11c0 -38.667 24 -67.667 72 -87l108 -40c0 -30.667 -3.83301 -65 -11.5 -103s-15.5 -67.667 -23.5 -89l-48 16l118 -784v-196zM657.997 1714l-77 -146l-160 86l74 146zM854.997 1536l-78 -144l-162 86l75 143zM624.997 1446l-76 -145l-162 84l74 145z" />
    <glyph glyph-name="afii57509" unicode="&#x6af;" horiz-adv-x="1663" arabic-form="isolated" 
d="M1547 467c-46.667 70.667 -100 132.166 -160 184.499s-141 108.833 -243 169.5l-33 -31l-118 90c-41.333 34.667 -62 61.667 -62 81c0 114.667 28 204.667 84 270c52 60 141.667 114 269 162l282 110v-173l-209 -70c-83.333 -27.333 -150.666 -52.333 -201.999 -75
c-65.333 -28.667 -98 -50.667 -98 -66s21.333 -39 64 -71l81 -60c101.333 -76.667 189.666 -157 264.999 -241c81.333 -90 146.666 -183.333 195.999 -280v-174h-1195c-159.333 0 -272.666 19 -339.999 57c-72 40.667 -108 110 -108 208c0 58.667 15.667 125.334 47 200.001
c8.66699 20.667 27 59 55 115l34 -20c-22.667 -52 -37.5 -92 -44.5 -120s-10.5 -54.667 -10.5 -80c0 -72.667 38.333 -123.667 115 -153c57.333 -22 141.333 -33 252 -33h1079zM1566 1776v-169.001c-144 -52.667 -277.333 -108.667 -400 -168
c-108.667 -52 -194 -99 -256 -141v106c21.333 24 64 57 128 99s140.667 86.333 230 133c100 52.667 199.333 99.334 298 140.001z" />
    <glyph glyph-name="uni06B1" unicode="&#x6b1;" horiz-adv-x="1663" arabic-form="isolated" 
d="M1547 467c-46.667 70.667 -100 132.166 -160 184.499s-141 108.833 -243 169.5l-33 -31l-118 90c-41.333 34.667 -62 61.667 -62 81c0 114.667 28 204.667 84 270c52 60 141.667 114 269 162l282 110v-173l-209 -70c-83.333 -27.333 -150.666 -52.333 -201.999 -75
c-65.333 -28.667 -98 -50.667 -98 -66s21.333 -39 64 -71l81 -60c101.333 -76.667 189.666 -157 264.999 -241c81.333 -90 146.666 -183.333 195.999 -280v-174h-1195c-159.333 0 -272.666 19 -339.999 57c-72 40.667 -108 110 -108 208c0 58.667 15.667 125.334 47 200.001
c8.66699 20.667 27 59 55 115l34 -20c-22.667 -52 -37.5 -92 -44.5 -120s-10.5 -54.667 -10.5 -80c0 -72.667 38.333 -123.667 115 -153c57.333 -22 141.333 -33 252 -33h1079zM1566 1776v-169.001c-144 -52.667 -277.333 -108.667 -400 -168
c-108.667 -52 -194 -99 -256 -141v106c21.333 24 64 57 128 99s140.667 86.333 230 133c100 52.667 199.333 99.334 298 140.001zM1334 1781l-54 -105l-144 44l56 105zM1125 1690l-54 -105l-144 44l56 105z" />
    <glyph glyph-name="uni06B3" unicode="&#x6b3;" horiz-adv-x="1663" arabic-form="isolated" 
d="M1547 467c-46.667 70.667 -100 132.166 -160 184.499s-141 108.833 -243 169.5l-33 -31l-118 90c-41.333 34.667 -62 61.667 -62 81c0 114.667 28 204.667 84 270c52 60 141.667 114 269 162l282 110v-173l-209 -70c-83.333 -27.333 -150.666 -52.333 -201.999 -75
c-65.333 -28.667 -98 -50.667 -98 -66s21.333 -39 64 -71l81 -60c101.333 -76.667 189.666 -157 264.999 -241c81.333 -90 146.666 -183.333 195.999 -280v-174h-1195c-159.333 0 -272.666 19 -339.999 57c-72 40.667 -108 110 -108 208c0 58.667 15.667 125.334 47 200.001
c8.66699 20.667 27 59 55 115l34 -20c-22.667 -52 -37.5 -92 -44.5 -120s-10.5 -54.667 -10.5 -80c0 -72.667 38.333 -123.667 115 -153c57.333 -22 141.333 -33 252 -33h1079zM1566 1776v-169.001c-144 -52.667 -277.333 -108.667 -400 -168
c-108.667 -52 -194 -99 -256 -141v106c21.333 24 64 57 128 99s140.667 86.333 230 133c100 52.667 199.333 99.334 298 140.001zM1005 55.998l-74 -145l-164 84l76 145zM1051 -194.002l-74 -146l-163 86l77 146z" />
    <glyph glyph-name="uni06BA" unicode="&#x6ba;" horiz-adv-x="1077" arabic-form="isolated" 
d="M1077 293c0 -148.667 -43.666 -257.999 -130.999 -327.999c-94 -75.333 -245.667 -113 -455 -113c-133.333 0 -235.333 23.333 -306 70c-77.333 51.333 -116 130 -116 236c0 57.333 7 115.333 21 174s33 117.667 57 177c14.667 36 40 91.333 76 166l40 -18
c-46.667 -96 -77.5 -171.667 -92.5 -227s-22.5 -106 -22.5 -152c0 -82.667 29.5 -145.5 88.5 -188.5s143.167 -64.5 252.5 -64.5c126 0 237.667 22.333 335 67c120.667 55.333 181 132.666 181 231.999c0 68 -10 131.333 -30 190c-17.333 52 -42 97.333 -74 136l83 205
c35.333 -54 59.666 -109 72.999 -165s20 -130.333 20 -223v-174z" />
    <glyph glyph-name="uni06BB" unicode="&#x6bb;" horiz-adv-x="1077" arabic-form="isolated" 
d="M1077 293c0 -148.667 -43.666 -257.999 -130.999 -327.999c-94 -75.333 -245.667 -113 -455 -113c-133.333 0 -235.333 23.333 -306 70c-77.333 51.333 -116 130 -116 236c0 57.333 7 115.333 21 174s33 117.667 57 177c14.667 36 40 91.333 76 166l40 -18
c-46.667 -96 -77.5 -171.667 -92.5 -227s-22.5 -106 -22.5 -152c0 -82.667 29.5 -145.5 88.5 -188.5s143.167 -64.5 252.5 -64.5c126 0 237.667 22.333 335 67c120.667 55.333 181 132.666 181 231.999c0 68 -10 131.333 -30 190c-17.333 52 -42 97.333 -74 136l83 205
c35.333 -54 59.666 -109 72.999 -165s20 -130.333 20 -223v-174zM891.001 983.001h-600.998v83h73c42 0 86.667 14.667 134 44c12.667 30.667 19 61 19 91c0 32.667 -3.33301 70.334 -10 113.001c-5.33301 32.667 -12.333 67.667 -21 105
c-4.66699 20 -11.334 45.667 -20.001 77l-29 14c5.33301 43.333 14.333 79 27 107c5.33301 -16 18.666 -28.333 39.999 -37c13.333 -5.33301 30.666 -9 51.999 -11c-1.33301 -20.667 -6.66602 -52.334 -15.999 -95.001c-2.66699 0.666992 -8.66699 2 -18 4l-6 2
c25.333 -84.667 38 -155.667 38 -213c0 -21.333 -2.33301 -46.333 -7 -75c-1.33301 -8.66699 -4 -24 -8 -46c54 31.333 89.667 51 107 59c48 22.667 88 34 120 34c84 0 126 -45.333 126 -136v-120zM815.003 1102c0 33.333 -32 50 -96 50c-42 0 -95 -16.667 -159 -50
c-26 -13.333 -47.333 -25.333 -64 -36h207c74.667 0 112 12 112 36z" />
    <glyph glyph-name="afii57470" unicode="&#x647;" horiz-adv-x="922" arabic-form="initial" 
d="M788 462c0 -38.667 -11.999 -81.6631 -35.999 -128.996c-26 -51.333 -52 -77 -78 -77c-27.333 0 -78.333 17.333 -153 52c-68.667 32 -126.667 63.333 -174 94c-77.333 -44 -133.666 -72.333 -168.999 -85c-44.667 -16 -97.334 -24 -158.001 -24h-90v174h90
c27.333 0 53.666 2.16699 78.999 6.5s59.666 12.166 102.999 23.499l-52 39c-18.667 16.667 -28 33 -28 49c0 11.333 0.5 19.666 1.5 24.999s5.5 15.333 13.5 30l99 173c13.333 23.333 25.5 39.5 36.5 48.5s26.167 16.167 45.5 21.5c-46 31.333 -69 53.666 -69 66.999
s14.667 47.666 44 102.999l46 83c42.667 -40.667 96.334 -99.667 161.001 -177c82 -97.333 146.667 -184.333 194 -261c62.667 -101.333 94 -180 94 -236zM436.001 679.004c0 28.667 -5.99902 51.333 -17.999 68c-14 20 -36.333 30 -67 30s-59.334 -10.167 -86.001 -30.5
s-40 -44.833 -40 -73.5c0 -27.333 40.667 -63.333 122 -108c28.667 18.667 50 36.667 64 54c16.667 20 25 40 25 60zM677.002 450.003c0 23.333 -18.666 59.667 -55.999 109c-23.333 31.333 -52 64.666 -86 99.999c0 -32.667 -6.83301 -63.167 -20.5 -91.5
s-32.834 -50.166 -57.501 -65.499l121 -61c33.333 -14.667 57 -22 71 -22c8 0 14.667 3 20 9s8 13.333 8 22z" />
    <glyph glyph-name="uni06C0" unicode="&#x6c0;" horiz-adv-x="578" arabic-form="isolated" 
d="M536 588c0 -94 -15.333 -164.667 -46 -212c-47.333 -73.333 -134 -110 -260 -110c-48.667 0 -89 9.66699 -121 29c-36.667 22 -55 53.333 -55 94c0 46.667 11.667 100.667 35 162l65 157l-15 4l61 169c120.667 -63.333 192.667 -103.333 216 -120
c80 -56 120 -113.667 120 -173zM449 510c0 25.333 -36.667 59 -110 101c-31.333 18 -65 35.667 -101 53c-30 -32.667 -48 -53 -54 -61c-18.667 -26 -28 -50.667 -28 -74c0 -34 9.5 -60.5 28.5 -79.5s44.5 -28.5 76.5 -28.5c37.333 0 78 10.5 122 31.5s66 40.167 66 57.5z
M426 1139c0 -16.667 -10.332 -31.667 -30.999 -45c-14 -8.66699 -35 -18 -63 -28l-186 -64c0 30.667 33.333 57.667 100 81c-20.667 10.667 -36.334 21 -47.001 31c-14 12.667 -21 26 -21 40c0 20.667 17.667 49.667 53 87c39.333 41.333 74 62 104 62
c13.333 0 24.833 -4.5 34.5 -13.5s14.5 -20.833 14.5 -35.5c0 -9.33301 -2 -18.833 -6 -28.5s-9.66699 -20.5 -17 -32.5c-20.667 18.667 -43 28 -67 28c-14.667 0 -29.167 -3 -43.5 -9s-21.5 -13 -21.5 -21c0 -10 15.5 -23.667 46.5 -41s57.5 -26 79.5 -26
c14.667 0 25.167 0.5 31.5 1.5s19.5 5.5 39.5 13.5z" />
    <glyph glyph-name="uni06C1" unicode="&#x6c1;" horiz-adv-x="794" arabic-form="final" 
d="M794 293l-72.001 0.000976562c-44 0 -81.5 8.83301 -112.5 26.5s-67.833 50.167 -110.5 97.5c-37.333 41.333 -57.666 63.666 -60.999 66.999c-21.333 19.333 -43 29 -65 29c-44.667 0 -101 -47.667 -169 -143c-47.333 -66.667 -91.333 -141.667 -132 -225l-46 29
c132.667 331.333 268.667 497 408 497c38 0 85 -32.333 141 -97c61.333 -71.333 114.333 -107 159 -107h60v-174z" />
    <glyph glyph-name="uni06C5" unicode="&#x6c5;" horiz-adv-x="885" arabic-form="isolated" 
d="M885 353c0 -110 -40.666 -219.334 -121.999 -328.001c-90.667 -121.333 -195.334 -182 -314.001 -182c-44 0 -89.333 5 -136 15c-38.667 8 -83 20.667 -133 38l-130 45l17 35l118 -27c44 -10 80.667 -15 110 -15c82 0 159 20.667 231 62
c54.667 31.333 108 75.333 160 132l11 12c-11.333 -2 -22.333 -3 -33 -3c-30.667 0 -76.667 8.33301 -138 25c-80.667 22 -124.667 33 -132 33c-14 0 -31 -4.66699 -51 -14l-11 13c32 50 67.667 75 107 75c14 0 61 -11 141 -33c60.667 -16.667 101 -25 121 -25
c20.667 0 41.334 2.66699 62.001 8l55 72c-185.333 0 -278 68 -278 204c0 68.667 16 132.334 48 191.001c37.333 68 84.666 102 141.999 102c103.333 0 155 -107 155 -321v-114zM822.001 461.999c-25.333 110 -65 165 -119 165c-46 0 -69 -21.667 -69 -65
c0 -66.667 62.667 -100 188 -100z" />
    <glyph glyph-name="uni06C6" unicode="&#x6c6;" horiz-adv-x="885" arabic-form="isolated" 
d="M885 353c0 -110 -40.667 -219.335 -122 -328.002c-90.667 -121.333 -195.334 -182 -314.001 -182c-44 0 -89.333 5 -136 15c-34 7.33301 -78.333 20 -133 38l-130 45l17 35l117.5 -27.5c41 -9.66699 77.833 -14.5 110.5 -14.5c81.333 0 158.333 20.667 231 62
c56.667 32.667 113.334 80 170.001 142c28.667 31.333 69.334 82.333 122.001 153c-90 0 -157.333 14.333 -202 43c-50.667 32.667 -76 86.334 -76 161.001c0 68.667 16 132.334 48 191.001c37.333 68 84.666 102 141.999 102c58 0 99.667 -33.667 125 -101
c20 -52.667 30 -126 30 -220v-114zM822 461.998c-14.667 64 -32.332 108.333 -52.999 133c-18 21.333 -40 32 -66 32c-18.667 0 -34.834 -6.16699 -48.501 -18.5s-20.5 -27.833 -20.5 -46.5c0 -32.667 14.667 -57.5 44 -74.5s77.333 -25.5 144 -25.5zM892.002 1200
l-136 -230h-56l-136 230h87l77 -140l77 140h87z" />
    <glyph glyph-name="uni06C7" unicode="&#x6c7;" horiz-adv-x="885" arabic-form="isolated" 
d="M885 353c0 -110 -40.667 -219.335 -122 -328.002c-90.667 -121.333 -195.334 -182 -314.001 -182c-44 0 -89.333 5 -136 15c-34 7.33301 -78.333 20 -133 38l-130 45l17 35l117.5 -27.5c41 -9.66699 77.833 -14.5 110.5 -14.5c81.333 0 158.333 20.667 231 62
c56.667 32.667 113.334 80 170.001 142c28.667 31.333 69.334 82.333 122.001 153c-90 0 -157.333 14.333 -202 43c-50.667 32.667 -76 86.334 -76 161.001c0 68.667 16 132.334 48 191.001c37.333 68 84.666 102 141.999 102c58 0 99.667 -33.667 125 -101
c20 -52.667 30 -126 30 -220v-114zM822 461.998c-14.667 64 -32.332 108.333 -52.999 133c-18 21.333 -40 32 -66 32c-18.667 0 -34.834 -6.16699 -48.501 -18.5s-20.5 -27.833 -20.5 -46.5c0 -32.667 14.667 -57.5 44 -74.5s77.333 -25.5 144 -25.5zM849.002 1093
c0 -11.333 -0.999023 -22.998 -2.99902 -34.998l-6 -36l-83 50c-33.333 -36.667 -56 -61 -68 -73c-49.333 -48 -90.666 -72 -123.999 -72h-73c35.333 16.667 76.666 43.667 123.999 81c42.667 34 75 64 97 90c-20.667 12.667 -36.334 26 -47.001 40
c-13.333 17.333 -20 36.333 -20 57c0 44 12.833 82.833 38.5 116.5s53.5 50.5 83.5 50.5c17.333 0 33 -9.33301 47 -28s21 -41.334 21 -68.001c0 -12.667 -1.83301 -25.834 -5.5 -39.501s-12.167 -38.834 -25.5 -75.501c10.667 -9.33301 21.667 -18.333 33 -27
c7.33301 -7.33301 11 -17.666 11 -30.999zM774.003 1206c0 18 -6.33203 34.6689 -18.999 50.002s-25 23 -37 23c-6.66699 0 -11.834 -2.33301 -15.501 -7s-5.5 -9.33398 -5.5 -14.001c0 -14.667 8.33301 -30 25 -46l44 -34c5.33301 13.333 8 22.666 8 27.999z" />
    <glyph glyph-name="uni06C8" unicode="&#x6c8;" horiz-adv-x="885" arabic-form="isolated" 
d="M885 353c0 -110 -40.667 -219.335 -122 -328.002c-90.667 -121.333 -195.334 -182 -314.001 -182c-44 0 -89.333 5 -136 15c-34 7.33301 -78.333 20 -133 38l-130 45l17 35l117.5 -27.5c41 -9.66699 77.833 -14.5 110.5 -14.5c81.333 0 158.333 20.667 231 62
c56.667 32.667 113.334 80 170.001 142c28.667 31.333 69.334 82.333 122.001 153c-90 0 -157.333 14.333 -202 43c-50.667 32.667 -76 86.334 -76 161.001c0 68.667 16 132.334 48 191.001c37.333 68 84.666 102 141.999 102c58 0 99.667 -33.667 125 -101
c20 -52.667 30 -126 30 -220v-114zM822 461.998c-14.667 64 -32.332 108.333 -52.999 133c-18 21.333 -40 32 -66 32c-18.667 0 -34.834 -6.16699 -48.501 -18.5s-20.5 -27.833 -20.5 -46.5c0 -32.667 14.667 -57.5 44 -74.5s77.333 -25.5 144 -25.5zM730.002 1052
c0 -36 -15.668 -79 -47.001 -129l-9 4c2.66699 24.667 4 42.667 4 54c0 82.667 -15.667 232.667 -47 450c12.667 25.333 28.334 54.333 47.001 87c34.667 -222.667 52 -378 52 -466z" />
    <glyph glyph-name="uni06C9" unicode="&#x6c9;" horiz-adv-x="885" arabic-form="isolated" 
d="M885 353c0 -110 -40.667 -219.335 -122 -328.002c-90.667 -121.333 -195.334 -182 -314.001 -182c-44 0 -89.333 5 -136 15c-34 7.33301 -78.333 20 -133 38l-130 45l17 35l117.5 -27.5c41 -9.66699 77.833 -14.5 110.5 -14.5c81.333 0 158.333 20.667 231 62
c56.667 32.667 113.334 80 170.001 142c28.667 31.333 69.334 82.333 122.001 153c-90 0 -157.333 14.333 -202 43c-50.667 32.667 -76 86.334 -76 161.001c0 68.667 16 132.334 48 191.001c37.333 68 84.666 102 141.999 102c58 0 99.667 -33.667 125 -101
c20 -52.667 30 -126 30 -220v-114zM822 461.998c-14.667 64 -32.332 108.333 -52.999 133c-18 21.333 -40 32 -66 32c-18.667 0 -34.834 -6.16699 -48.501 -18.5s-20.5 -27.833 -20.5 -46.5c0 -32.667 14.667 -57.5 44 -74.5s77.333 -25.5 144 -25.5zM892.002 969.998h-87
l-77 140l-77 -140h-87l136 230h56z" />
    <glyph glyph-name="uni06CB" unicode="&#x6cb;" horiz-adv-x="885" arabic-form="isolated" 
d="M885 353c0 -110 -40.667 -219.335 -122 -328.002c-90.667 -121.333 -195.334 -182 -314.001 -182c-44 0 -89.333 5 -136 15c-34 7.33301 -78.333 20 -133 38l-130 45l17 35l117.5 -27.5c41 -9.66699 77.833 -14.5 110.5 -14.5c81.333 0 158.333 20.667 231 62
c56.667 32.667 113.334 80 170.001 142c28.667 31.333 69.334 82.333 122.001 153c-90 0 -157.333 14.333 -202 43c-50.667 32.667 -76 86.334 -76 161.001c0 68.667 16 132.334 48 191.001c37.333 68 84.666 102 141.999 102c58 0 99.667 -33.667 125 -101
c20 -52.667 30 -126 30 -220v-114zM822 461.998c-14.667 64 -32.332 108.333 -52.999 133c-18 21.333 -40 32 -66 32c-18.667 0 -34.834 -6.16699 -48.501 -18.5s-20.5 -27.833 -20.5 -46.5c0 -32.667 14.667 -57.5 44 -74.5s77.333 -25.5 144 -25.5zM698.002 1369l-77 -146
l-160 86l74 146zM895.002 1191l-78 -144l-162 86l75 143zM665.002 1101l-76 -145l-162 84l74 145z" />
    <glyph glyph-name="afii57555" unicode="&#x6cc;" horiz-adv-x="1307" arabic-form="isolated" 
d="M1241 800c0 -21.333 -2.00098 -43.1719 -6.00098 -65.5049s-6.66699 -38.166 -8 -47.499c-23.333 30 -51.166 53.667 -83.499 71s-65.166 26 -98.499 26c-58 0 -119 -33.667 -183 -101c-58.667 -62 -88 -111.333 -88 -148c0 -12.667 7.16699 -22.167 21.5 -28.5
s39.166 -9.5 74.499 -9.5h80c48 0 83.5 -0.5 106.5 -1.5s50.5 -4.16699 82.5 -9.5s48 -29.666 48 -72.999c0 -167.333 -73 -294.666 -219 -381.999c-134 -80 -315.333 -120 -544 -120c-118.667 0 -209.334 23 -272.001 69c-68 50 -102 125.333 -102 226
c0 69.333 11.333 142 34 218c17.333 58 41.333 118.667 72 182c2 4 23 43.667 63 119l42 -17c-42 -74.667 -74.167 -144.5 -96.5 -209.5s-33.5 -122.5 -33.5 -172.5c0 -81.333 28.167 -142.333 84.5 -183s136.833 -61 241.5 -61c80 0 173 16 279 48
c90.667 27.333 172.334 60 245.001 98s109 66 109 84c0 12.667 -4.16699 21 -12.5 25s-21.833 6 -40.5 6h-234c-28.667 0 -54 10.333 -76 31s-33 47.334 -33 80.001c0 44.667 18.333 105.334 55 182.001c40 83.333 88.333 153 145 209c68 67.333 136.333 101 205 101
c44 0 78.667 -13.333 104 -40s38 -62 38 -106z" />
    <glyph glyph-name="uni06D0" unicode="&#x6d0;" horiz-adv-x="1307" arabic-form="isolated" 
d="M1241 800c0 -21.333 -2.00098 -43.1719 -6.00098 -65.5049s-6.66699 -38.166 -8 -47.499c-23.333 30 -51.166 53.667 -83.499 71s-65.166 26 -98.499 26c-58 0 -119 -33.667 -183 -101c-58.667 -62 -88 -111.333 -88 -148c0 -12.667 7.16699 -22.167 21.5 -28.5
s39.166 -9.5 74.499 -9.5h80c48 0 83.5 -0.5 106.5 -1.5s50.5 -4.16699 82.5 -9.5s48 -29.666 48 -72.999c0 -167.333 -73 -294.666 -219 -381.999c-134 -80 -315.333 -120 -544 -120c-118.667 0 -209.334 23 -272.001 69c-68 50 -102 125.333 -102 226
c0 69.333 11.333 142 34 218c17.333 58 41.333 118.667 72 182c2 4 23 43.667 63 119l42 -17c-42 -74.667 -74.167 -144.5 -96.5 -209.5s-33.5 -122.5 -33.5 -172.5c0 -81.333 28.167 -142.333 84.5 -183s136.833 -61 241.5 -61c80 0 173 16 279 48
c90.667 27.333 172.334 60 245.001 98s109 66 109 84c0 12.667 -4.16699 21 -12.5 25s-21.833 6 -40.5 6h-234c-28.667 0 -54 10.333 -76 31s-33 47.334 -33 80.001c0 44.667 18.333 105.334 55 182.001c40 83.333 88.333 153 145 209c68 67.333 136.333 101 205 101
c44 0 78.667 -13.333 104 -40s38 -62 38 -106zM604.999 -193.006l-34 -70l-94 24l36 70zM630.999 -301.006l-34 -70l-94 24l36 70z" />
    <glyph glyph-name="uni06D2" unicode="&#x6d2;" horiz-adv-x="1663" arabic-form="isolated" 
d="M1663 114l-253.001 -165h-1169c-77.333 0 -124.333 4.66699 -141 14c-18.667 10.667 -28.334 26.667 -29.001 48c-1.33301 42.667 6.83398 94.5 24.501 155.5s37.834 104.833 60.501 131.5c16 18 68 51.333 156 100l178 96c54 31.333 114.333 84 181 158
c46.667 52 71.334 79.333 74.001 82c20.667 19.333 42 29 64 29c28 0 50.333 -18 67 -54c14.667 -32 22 -71.667 22 -119c0 -51.333 -3.66699 -92.333 -11 -123c-40.667 82.667 -81.334 124 -122.001 124c-36 0 -75.667 -25.333 -119 -76
c-2.66699 -3.33301 -20.667 -30.666 -54 -81.999c-24 -36.667 -46 -59.667 -66 -69l-253 -129c-80 -38.667 -120 -66.334 -120 -83.001c0 -19.333 31.333 -29 94 -29h1416v-9z" />
    <glyph glyph-name="uni06D3" unicode="&#x6d3;" horiz-adv-x="1663" arabic-form="isolated" 
d="M1663 114l-253.001 -165h-1169c-77.333 0 -124.333 4.66699 -141 14c-18.667 10.667 -28.334 26.667 -29.001 48c-1.33301 42.667 6.83398 94.5 24.501 155.5s37.834 104.833 60.501 131.5c16 18 68 51.333 156 100l178 96c54 31.333 114.333 84 181 158
c46.667 52 71.334 79.333 74.001 82c20.667 19.333 42 29 64 29c28 0 50.333 -18 67 -54c14.667 -32 22 -71.667 22 -119c0 -51.333 -3.66699 -92.333 -11 -123c-40.667 82.667 -81.334 124 -122.001 124c-36 0 -75.667 -25.333 -119 -76
c-2.66699 -3.33301 -20.667 -30.666 -54 -81.999c-24 -36.667 -46 -59.667 -66 -69l-253 -129c-80 -38.667 -120 -66.334 -120 -83.001c0 -19.333 31.333 -29 94 -29h1416v-9zM665.999 839c0 -16.667 -10.332 -31.667 -30.999 -45c-14 -8.66699 -35 -18 -63 -28l-186 -64
c0 30.667 33.333 57.667 100 81c-20.667 10.667 -36.334 21 -47.001 31c-14 12.667 -21 26 -21 40c0 20.667 17.667 49.667 53 87c39.333 41.333 74 62 104 62c13.333 0 24.833 -4.5 34.5 -13.5s14.5 -20.833 14.5 -35.5c0 -9.33301 -2 -18.833 -6 -28.5
s-9.66699 -20.5 -17 -32.5c-20.667 18.667 -43 28 -67 28c-14.667 0 -29.167 -3 -43.5 -9s-21.5 -13 -21.5 -21c0 -10 15.5 -23.667 46.5 -41s57.5 -26 79.5 -26c14.667 0 25.167 0.5 31.5 1.5s19.5 5.5 39.5 13.5z" />
    <glyph glyph-name="uniFB51" unicode="&#x671;" horiz-adv-x="470" arabic-form="final" 
d="M470 293h-140.002c-45.333 0 -81.666 18.333 -108.999 55c-24 32 -42.167 79.667 -54.5 143s-21.833 141.333 -28.5 234l-12.5 232c-4.33301 79.333 -10 139.5 -17 180.5s-16.5 74.5 -28.5 100.5c-14.667 32 -35 60 -61 84l123 194c26 -80 44.333 -175.667 55 -287
c6.66699 -69.333 13.334 -233.333 20.001 -492c12 -118.667 29.333 -194.667 52 -228c18.667 -28 39 -42 61 -42h140v-174zM351.998 1725c0 -35.333 -16 -67.668 -48 -97.001c-34.667 -32 -76 -48 -124 -48h-167c-20.667 0 -31 -15 -31 -45
c0 -3.33301 0.666992 -9.33301 2 -18c0.666992 -8 0.666992 -14 0 -18c-32 32.667 -48 66.334 -48 101.001c0 44 25.333 66 76 66h24c78.667 106 156.667 159 234 159c54.667 0 82 -33.333 82 -100zM261.998 1726c0 25.333 -10.666 38 -31.999 38
c-36.667 0 -83.334 -32.667 -140.001 -98h82c60 0 90 20 90 60z" />
    <glyph glyph-name="uniFB53" unicode="&#x67b;" horiz-adv-x="1461" arabic-form="final" 
d="M1461 293l-954 0.000976562c-128 0 -230 22.333 -306 67c-95.333 56 -143 143.667 -143 263c0 62 14 125.333 42 190c10 23.333 34 67.666 72 132.999l30 -19l-43 -92c-19.333 -47.333 -29 -89.666 -29 -126.999c0 -78.667 41.333 -139.667 124 -183
c74 -38.667 167.667 -58 281 -58h847v27c0 74.667 -9 135.5 -27 182.5s-48.667 87.167 -92 120.5l77 163c29.333 -36.667 47 -59.667 53 -69c45.333 -74.667 68 -183.334 68 -326.001v-272zM905 56.001l-74 -145l-164 84l76 145zM951 -193.999l-74 -146l-163 86l77 146z" />
    <glyph glyph-name="uniFB54" unicode="&#x67b;" horiz-adv-x="500" arabic-form="initial" 
d="M500 293h-570v174h497c0 78.667 -9.33301 138.667 -28 180c-12.667 28.667 -44 70 -94 124l78 163c48 -60.667 78 -108 90 -142c18 -51.333 27 -136.333 27 -255v-244zM345 56l-74 -145l-164 84l76 145zM391 -194l-74 -146l-163 86l77 146z" />
    <glyph glyph-name="uniFB55" unicode="&#x67b;" horiz-adv-x="500" arabic-form="medial" 
d="M500 293h-570v174h497c0 78.667 -9.33301 138.667 -28 180c-12.667 28.667 -44 70 -94 124l78 163c48 -60.667 78 -108 90 -142c18 -51.333 27 -136.333 27 -255v-244zM345 56l-74 -145l-164 84l76 145zM391 -194l-74 -146l-163 86l77 146z" />
    <glyph glyph-name="afii62958" unicode="&#x67e;" horiz-adv-x="1461" arabic-form="final" 
d="M1461 293l-954 0.000976562c-128 0 -230 22.333 -306 67c-95.333 56 -143 143.667 -143 263c0 62 14 125.333 42 190c10 23.333 34 67.666 72 132.999l30 -19l-43 -92c-19.333 -47.333 -29 -89.666 -29 -126.999c0 -78.667 41.333 -139.667 124 -183
c74 -38.667 167.667 -58 281 -58h847v27c0 74.667 -9 135.5 -27 182.5s-48.667 87.167 -92 120.5l77 163c29.333 -36.667 47 -59.667 53 -69c45.333 -74.667 68 -183.334 68 -326.001v-272zM1018 56.001l-74 -145l-164 84l76 145zM984 -212.999l-74 -146l-163 86l77 146z
M790 -36.999l-75 -143l-165 85l78 144z" />
    <glyph glyph-name="afii62956" unicode="&#x67e;" horiz-adv-x="500" arabic-form="initial" 
d="M484 56l-74 -145l-164 84l76 145zM450 -213l-74 -146l-163 86l77 146zM256 -37l-75 -143l-165 85l78 144zM500 293h-570v174h497c0 78.667 -9.33301 138.667 -28 180c-12.667 28.667 -44 70 -94 124l78 163c48 -60.667 78 -108 90 -142c18 -51.333 27 -136.333 27 -255
v-244z" />
    <glyph glyph-name="afii52957" unicode="&#x67e;" horiz-adv-x="500" arabic-form="medial" 
d="M484 56l-74 -145l-164 84l76 145zM450 -213l-74 -146l-163 86l77 146zM256 -37l-75 -143l-165 85l78 144zM500 293h-570v174h497c0 78.667 -9.33301 138.667 -28 180c-12.667 28.667 -44 70 -94 124l78 163c48 -60.667 78 -108 90 -142c18 -51.333 27 -136.333 27 -255
v-244z" />
    <glyph glyph-name="uniFB5B" unicode="&#x680;" horiz-adv-x="1461" arabic-form="final" 
d="M1461 293l-954 0.000976562c-128 0 -230 22.333 -306 67c-95.333 56 -143 143.667 -143 263c0 62 14 125.333 42 190c10 23.333 34 67.666 72 132.999l30 -19l-43 -92c-19.333 -47.333 -29 -89.666 -29 -126.999c0 -78.667 41.333 -139.667 124 -183
c74 -38.667 167.667 -58 281 -58h847v27c0 74.667 -9 135.5 -27 182.5s-48.667 87.167 -92 120.5l77 163c29.333 -36.667 47 -59.667 53 -69c45.333 -74.667 68 -183.334 68 -326.001v-272zM999 54.001l-77 -146l-160 86l74 146zM1047 -195.999l-78 -144l-162 86l75 143z
M817 -285.999l-76 -145l-162 84l74 145zM693 -182.999l-160 90l70 144l167 -90z" />
    <glyph glyph-name="uniFB5C" unicode="&#x680;" horiz-adv-x="500" arabic-form="initial" 
d="M500 293h-570v174h497c0 78.667 -9.33301 138.667 -28 180c-12.667 28.667 -44 70 -94 124l78 163c48 -60.667 78 -108 90 -142c18 -51.333 27 -136.333 27 -255v-244zM459 54l-77 -146l-160 86l74 146zM507 -196l-78 -144l-162 86l75 143zM277 -286l-76 -145l-162 84
l74 145zM153 -183l-160 90l70 144l167 -90z" />
    <glyph glyph-name="uniFB5D" unicode="&#x680;" horiz-adv-x="500" arabic-form="medial" 
d="M500 293h-570v174h497c0 78.667 -9.33301 138.667 -28 180c-12.667 28.667 -44 70 -94 124l78 163c48 -60.667 78 -108 90 -142c18 -51.333 27 -136.333 27 -255v-244zM459 54l-77 -146l-160 86l74 146zM507 -196l-78 -144l-162 86l75 143zM277 -286l-76 -145l-162 84
l74 145zM153 -183l-160 90l70 144l167 -90z" />
    <glyph glyph-name="uniFB5F" unicode="&#x67a;" horiz-adv-x="1461" arabic-form="final" 
d="M1461 293l-954 0.000976562c-128 0 -230 22.333 -306 67c-95.333 56 -143 143.667 -143 263c0 62 14 125.333 42 190c10 23.333 34 67.666 72 132.999l30 -19l-43 -92c-19.333 -47.333 -29 -89.666 -29 -126.999c0 -78.667 41.333 -139.667 124 -183
c74 -38.667 167.667 -58 281 -58h847v27c0 74.667 -9 135.5 -27 182.5s-48.667 87.167 -92 120.5l77 163c29.333 -36.667 47 -59.667 53 -69c45.333 -74.667 68 -183.334 68 -326.001v-272zM845 1456l-74 -145l-164 84l76 145zM891 1206l-74 -146l-163 86l77 146z" />
    <glyph glyph-name="uniFB60" unicode="&#x67a;" horiz-adv-x="500" arabic-form="initial" 
d="M500 293h-570v174h497c0 78.667 -9.33301 138.667 -28 180c-12.667 28.667 -44 70 -94 124l78 163c48 -60.667 78 -108 90 -142c18 -51.333 27 -136.333 27 -255v-244zM306 1456l-74 -145l-164 84l76 145zM352 1206l-74 -146l-163 86l77 146z" />
    <glyph glyph-name="uniFB61" unicode="&#x67a;" horiz-adv-x="500" arabic-form="medial" 
d="M500 293h-570v174h497c0 78.667 -9.33301 138.667 -28 180c-12.667 28.667 -44 70 -94 124l78 163c48 -60.667 78 -108 90 -142c18 -51.333 27 -136.333 27 -255v-244zM306 1456l-74 -145l-164 84l76 145zM352 1206l-74 -146l-163 86l77 146z" />
    <glyph glyph-name="uniFB63" unicode="&#x67f;" horiz-adv-x="1461" arabic-form="final" 
d="M1461 293l-954 0.000976562c-128 0 -230 22.333 -306 67c-95.333 56 -143 143.667 -143 263c0 62 14 125.333 42 190c10 23.333 34 67.666 72 132.999l30 -19l-43 -92c-19.333 -47.333 -29 -89.666 -29 -126.999c0 -78.667 41.333 -139.667 124 -183
c74 -38.667 167.667 -58 281 -58h847v27c0 74.667 -9 135.5 -27 182.5s-48.667 87.167 -92 120.5l77 163c29.333 -36.667 47 -59.667 53 -69c45.333 -74.667 68 -183.334 68 -326.001v-272zM959 1454l-77 -146l-160 86l74 146zM1007 1204l-78 -144l-162 86l75 143zM777 1114
l-76 -145l-162 84l74 145zM653 1217l-160 90l70 144l167 -90z" />
    <glyph glyph-name="uniFB64" unicode="&#x67f;" horiz-adv-x="500" arabic-form="initial" 
d="M500 293h-570v174h497c0 78.667 -9.33301 138.667 -28 180c-12.667 28.667 -44 70 -94 124l78 163c48 -60.667 78 -108 90 -142c18 -51.333 27 -136.333 27 -255v-244zM420 1454l-77 -146l-160 86l74 146zM468 1204l-78 -144l-162 86l75 143zM238 1114l-76 -145l-162 84
l74 145zM114 1217l-160 90l70 144l167 -90z" />
    <glyph glyph-name="uniFB65" unicode="&#x67f;" horiz-adv-x="500" arabic-form="medial" 
d="M500 293h-570v174h497c0 78.667 -9.33301 138.667 -28 180c-12.667 28.667 -44 70 -94 124l78 163c48 -60.667 78 -108 90 -142c18 -51.333 27 -136.333 27 -255v-244zM420 1454l-77 -146l-160 86l74 146zM468 1204l-78 -144l-162 86l75 143zM238 1114l-76 -145l-162 84
l74 145zM114 1217l-160 90l70 144l167 -90z" />
    <glyph glyph-name="uniFB67" unicode="&#x679;" horiz-adv-x="1461" arabic-form="final" 
d="M1461 293l-954 0.000976562c-128 0 -230 22.333 -306 67c-95.333 56 -143 143.667 -143 263c0 62 14 125.333 42 190c10 23.333 34 67.666 72 132.999l30 -19l-43 -92c-19.333 -47.333 -29 -89.666 -29 -126.999c0 -78.667 41.333 -139.667 124 -183
c74 -38.667 167.667 -58 281 -58h847v27c0 74.667 -9 135.5 -27 182.5s-48.667 87.167 -92 120.5l77 163c29.333 -36.667 47 -59.667 53 -69c45.333 -74.667 68 -183.334 68 -326.001v-272zM1051 1062h-600.998v83h73c42 0 86.667 14.667 134 44c12.667 30.667 19 61 19 91
c0 32.667 -3.33301 70.334 -10 113.001c-5.33301 32.667 -12.333 67.667 -21 105c-4.66699 20 -11.334 45.667 -20.001 77l-29 14c5.33301 43.333 14.333 79 27 107c5.33301 -16 18.666 -28.333 39.999 -37c13.333 -5.33301 30.666 -9 51.999 -11
c-1.33301 -20.667 -6.66602 -52.334 -15.999 -95.001c-2.66699 0.666992 -8.66699 2 -18 4l-6 2c25.333 -84.667 38 -155.667 38 -213c0 -21.333 -2.33301 -46.333 -7 -75c-1.33301 -8.66699 -4 -24 -8 -46c54 31.333 89.667 51 107 59c48 22.667 88 34 120 34
c84 0 126 -45.333 126 -136v-120zM975.002 1181c0 33.333 -32 50 -96 50c-42 0 -95 -16.667 -159 -50c-26 -13.333 -47.333 -25.333 -64 -36h207c74.667 0 112 12 112 36z" />
    <glyph glyph-name="uniFB68" unicode="&#x679;" horiz-adv-x="500" arabic-form="initial" 
d="M500 293h-570v174h497c0 78.667 -9.33301 138.667 -28 180c-12.667 28.667 -44 70 -94 124l78 163c48 -60.667 78 -108 90 -142c18 -51.333 27 -136.333 27 -255v-244zM551 1062h-600.998v83h73c42 0 86.667 14.667 134 44c12.667 30.667 19 61 19 91
c0 32.667 -3.33301 70.334 -10 113.001c-5.33301 32.667 -12.333 67.667 -21 105c-4.66699 20 -11.334 45.667 -20.001 77l-29 14c5.33301 43.333 14.333 79 27 107c5.33301 -16 18.666 -28.333 39.999 -37c13.333 -5.33301 30.666 -9 51.999 -11
c-1.33301 -20.667 -6.66602 -52.334 -15.999 -95.001c-2.66699 0.666992 -8.66699 2 -18 4l-6 2c25.333 -84.667 38 -155.667 38 -213c0 -21.333 -2.33301 -46.333 -7 -75c-1.33301 -8.66699 -4 -24 -8 -46c54 31.333 89.667 51 107 59c48 22.667 88 34 120 34
c84 0 126 -45.333 126 -136v-120zM475.002 1181c0 33.333 -32 50 -96 50c-42 0 -95 -16.667 -159 -50c-26 -13.333 -47.333 -25.333 -64 -36h207c74.667 0 112 12 112 36z" />
    <glyph glyph-name="uniFB69" unicode="&#x679;" horiz-adv-x="500" arabic-form="medial" 
d="M500 293h-570v174h497c0 78.667 -9.33301 138.667 -28 180c-12.667 28.667 -44 70 -94 124l78 163c48 -60.667 78 -108 90 -142c18 -51.333 27 -136.333 27 -255v-244zM551 1062h-600.998v83h73c42 0 86.667 14.667 134 44c12.667 30.667 19 61 19 91
c0 32.667 -3.33301 70.334 -10 113.001c-5.33301 32.667 -12.333 67.667 -21 105c-4.66699 20 -11.334 45.667 -20.001 77l-29 14c5.33301 43.333 14.333 79 27 107c5.33301 -16 18.666 -28.333 39.999 -37c13.333 -5.33301 30.666 -9 51.999 -11
c-1.33301 -20.667 -6.66602 -52.334 -15.999 -95.001c-2.66699 0.666992 -8.66699 2 -18 4l-6 2c25.333 -84.667 38 -155.667 38 -213c0 -21.333 -2.33301 -46.333 -7 -75c-1.33301 -8.66699 -4 -24 -8 -46c54 31.333 89.667 51 107 59c48 22.667 88 34 120 34
c84 0 126 -45.333 126 -136v-120zM475.002 1181c0 33.333 -32 50 -96 50c-42 0 -95 -16.667 -159 -50c-26 -13.333 -47.333 -25.333 -64 -36h207c74.667 0 112 12 112 36z" />
    <glyph glyph-name="uniFB6B" unicode="&#x6a4;" horiz-adv-x="1615" arabic-form="final" 
d="M1615 293l-917 0.000976562c-140.667 0 -254 8.66699 -340 26c-102.667 20.667 -180.334 55 -233.001 103c-57.333 52 -86 122.667 -86 212c0 59.333 17 128.666 51 207.999l55 121l40 -23c-28.667 -58 -47.667 -102.167 -57 -132.5s-14 -57.833 -14 -82.5
c0 -88 48 -153 144 -195s248.667 -63 458 -63h737c-78 21.333 -135.333 46 -172 74c-42 32 -63 71.667 -63 119c0 62 20.667 128.333 62 199c46.667 79.333 98.334 119 155.001 119c66 0 113.667 -39 143 -117c24.667 -65.333 37 -158.333 37 -279v-289zM1511 596.001
c0 58 -6.33398 102.669 -19.001 134.002c-15.333 37.333 -38.666 56 -69.999 56c-22.667 0 -39.5 -6.83301 -50.5 -20.5s-16.5 -32.834 -16.5 -57.501c0 -32.667 13.667 -57.334 41 -74.001c20 -12 58.333 -24.667 115 -38zM1398 1494l-77 -146l-160 86l74 146zM1595 1316
l-78 -144l-162 86l75 143zM1365 1226l-76 -145l-162 84l74 145z" />
    <glyph glyph-name="uniFB6C" unicode="&#x6a4;" horiz-adv-x="548" arabic-form="initial" 
d="M548 293h-617.998v174h533c0 59.333 -7 115 -21 167c-34.667 -11.333 -61.334 -19.333 -80.001 -24c-30.667 -8 -57.667 -12 -81 -12c-48.667 0 -88.334 12.333 -119.001 37c-35.333 28 -53 68.333 -53 121c0 92.667 16.667 173.667 50 243c37.333 77.333 86 116 146 116
c81.333 0 144 -63.667 188 -191c36.667 -105.333 55 -229 55 -371v-260zM385.002 813c-9.33301 24 -24.332 48.333 -44.999 73c-28 33.333 -54.667 50 -80 50c-18 0 -32.833 -7.5 -44.5 -22.5s-17.5 -32.833 -17.5 -53.5c0 -53.333 29.333 -80 88 -80
c15.333 0 31.666 3 48.999 9s34 14 50 24zM259.003 1594l-77 -146l-160 86l74 146zM456.003 1416l-78 -144l-162 86l75 143zM226.003 1326l-76 -145l-162 84l74 145z" />
    <glyph glyph-name="uniFB6D" unicode="&#x6a4;" horiz-adv-x="538" arabic-form="medial" 
d="M538 293l-607.999 -0.000976562v174h343c41.333 0 76.5 1.5 105.5 4.5s60.5 9.5 94.5 19.5c-114.667 16.667 -189 32.334 -223 47.001c-76.667 33.333 -115 90 -115 170c0 70 18.333 136 55 198c41.333 70 91.666 105 150.999 105c68 0 119.667 -43.333 155 -130
c28 -68.667 42 -149.667 42 -243v-345zM448.001 641.999c-15.333 53.333 -30 93 -44 119c-27.333 50 -60.333 75 -99 75c-18.667 0 -34.667 -7.33301 -48 -22s-20 -32 -20 -52c0 -50.667 26.333 -84.667 79 -102c18.667 -6 62.667 -12 132 -18zM279.001 1594l-77 -146
l-160 86l74 146zM476.001 1416l-78 -144l-162 86l75 143zM246.001 1326l-76 -145l-162 84l74 145z" />
    <glyph glyph-name="uniFB6F" unicode="&#x6a6;" horiz-adv-x="1615" arabic-form="final" 
d="M1615 293l-917 0.000976562c-140.667 0 -254 8.66699 -340 26c-102.667 20.667 -180.334 55 -233.001 103c-57.333 52 -86 122.667 -86 212c0 59.333 17 128.666 51 207.999l55 121l40 -23c-28.667 -58 -47.667 -102.167 -57 -132.5s-14 -57.833 -14 -82.5
c0 -88 48 -153 144 -195s248.667 -63 458 -63h737c-78 21.333 -135.333 46 -172 74c-42 32 -63 71.667 -63 119c0 62 20.667 128.333 62 199c46.667 79.333 98.334 119 155.001 119c66 0 113.667 -39 143 -117c24.667 -65.333 37 -158.333 37 -279v-289zM1511 596.001
c0 58 -6.33398 102.669 -19.001 134.002c-15.333 37.333 -38.666 56 -69.999 56c-22.667 0 -39.5 -6.83301 -50.5 -20.5s-16.5 -32.834 -16.5 -57.501c0 -32.667 13.667 -57.334 41 -74.001c20 -12 58.333 -24.667 115 -38zM1559 1554l-77 -146l-160 86l74 146zM1607 1304
l-78 -144l-162 86l75 143zM1377 1214l-76 -145l-162 84l74 145zM1253 1317l-160 90l70 144l167 -90z" />
    <glyph glyph-name="uniFB70" unicode="&#x6a6;" horiz-adv-x="548" arabic-form="initial" 
d="M548 293h-617.998v174h533c0 59.333 -7 115 -21 167c-34.667 -11.333 -61.334 -19.333 -80.001 -24c-30.667 -8 -57.667 -12 -81 -12c-48.667 0 -88.334 12.333 -119.001 37c-35.333 28 -53 68.333 -53 121c0 92.667 16.667 173.667 50 243c37.333 77.333 86 116 146 116
c81.333 0 144 -63.667 188 -191c36.667 -105.333 55 -229 55 -371v-260zM385.002 813c-9.33301 24 -24.332 48.333 -44.999 73c-28 33.333 -54.667 50 -80 50c-18 0 -32.833 -7.5 -44.5 -22.5s-17.5 -32.833 -17.5 -53.5c0 -53.333 29.333 -80 88 -80
c15.333 0 31.666 3 48.999 9s34 14 50 24zM420.003 1634l-77 -146l-160 86l74 146zM468.003 1384l-78 -144l-162 86l75 143zM238.003 1294l-76 -145l-162 84l74 145zM114.003 1397l-160 90l70 144l167 -90z" />
    <glyph glyph-name="uniFB71" unicode="&#x6a6;" horiz-adv-x="538" arabic-form="medial" 
d="M538 293l-607.999 -0.000976562v174h343c41.333 0 76.5 1.5 105.5 4.5s60.5 9.5 94.5 19.5c-114.667 16.667 -189 32.334 -223 47.001c-76.667 33.333 -115 90 -115 170c0 70 18.333 136 55 198c41.333 70 91.666 105 150.999 105c68 0 119.667 -43.333 155 -130
c28 -68.667 42 -149.667 42 -243v-345zM448.001 641.999c-15.333 53.333 -30 93 -44 119c-27.333 50 -60.333 75 -99 75c-18.667 0 -34.667 -7.33301 -48 -22s-20 -32 -20 -52c0 -50.667 26.333 -84.667 79 -102c18.667 -6 62.667 -12 132 -18zM420.001 1634l-77 -146
l-160 86l74 146zM468.001 1384l-78 -144l-162 86l75 143zM238.001 1294l-76 -145l-162 84l74 145zM114.001 1397l-160 90l70 144l167 -90z" />
    <glyph glyph-name="uniFB73" unicode="&#x684;" horiz-adv-x="1077" arabic-form="final" 
d="M1077 293l-136.998 0.000976562c-80.667 0 -138 15 -172 45s-51 79.667 -51 149c0 26 3.33301 58.333 10 97l11 58c-114 -34.667 -200 -64.334 -258 -89.001c-106.667 -45.333 -189.334 -96.666 -248.001 -153.999c-74 -72 -111 -154 -111 -246
c0 -143.333 74.667 -251 224 -323c130 -62.667 303.667 -94 521 -94h184l6 -11l-226 -159h-58c-144 0 -263.667 13.333 -359 40c-114 32 -200.333 83.333 -259 154c-66.667 80.667 -100 187.334 -100 320.001c0 114 28.333 213.667 85 299
c44 66.667 108.333 127.667 193 183c24.667 16.667 93.334 55 206.001 115c-26.667 3.33301 -54.834 6.16602 -84.501 8.49902s-56.5 3.5 -80.5 3.5c-67.333 0 -122 -3 -164 -9c-14 -2 -57.667 -11 -131 -27c22.667 65.333 46.334 110.666 71.001 135.999
c55.333 56 142 84 260 84c64.667 0 134.667 -6.16699 210 -18.5s138.666 -18.5 189.999 -18.5c34 0 67.167 1.33301 99.5 4s66.166 6.33398 101.499 11.001l-40 -170c-27.333 -3.33301 -58.333 -8 -93 -14l-91 -17l-2 -56c0 -54.667 16.667 -91.334 50 -110.001
c20.667 -11.333 56 -17 106 -17h137v-174zM625.002 296.001l-74 -145l-164 84l76 145zM671.002 46.001l-74 -146l-163 86l77 146z" />
    <glyph glyph-name="uniFB74" unicode="&#x684;" horiz-adv-x="1085" arabic-form="initial" 
d="M1085 293l-1155 -0.00195312v174h815c-68 52.667 -125.333 93.667 -172 123c-58 36.667 -111 63.334 -159 80.001c-54 18.667 -108.667 28 -164 28c-34 0 -68.333 -2.33301 -103 -7c19.333 49.333 44.666 89 75.999 119c45.333 43.333 102.666 65 171.999 65
c68 0 148.333 -33.333 241 -100c46 -33.333 121 -96.666 225 -189.999c80.667 -72.667 135.334 -112 164.001 -118h60v-174zM605.001 55.998l-74 -145l-164 84l76 145zM651.001 -194.002l-74 -146l-163 86l77 146z" />
    <glyph glyph-name="uniFB75" unicode="&#x684;" horiz-adv-x="1085" arabic-form="medial" 
d="M1085 293l-1155 -0.00195312v174h815c-68 52.667 -125.333 93.667 -172 123c-58 36.667 -111 63.334 -159 80.001c-54 18.667 -108.667 28 -164 28c-34 0 -68.333 -2.33301 -103 -7c19.333 49.333 44.666 89 75.999 119c45.333 43.333 102.666 65 171.999 65
c68 0 148.333 -33.333 241 -100c46 -33.333 121 -96.666 225 -189.999c80.667 -72.667 135.334 -112 164.001 -118h60v-174zM605.001 55.998l-74 -145l-164 84l76 145zM651.001 -194.002l-74 -146l-163 86l77 146z" />
    <glyph glyph-name="uniFB77" unicode="&#x683;" horiz-adv-x="1077" arabic-form="final" 
d="M1077 293l-136.998 0.000976562c-80.667 0 -138 15 -172 45s-51 79.667 -51 149c0 26 3.33301 58.333 10 97l11 58c-114 -34.667 -200 -64.334 -258 -89.001c-106.667 -45.333 -189.334 -96.666 -248.001 -153.999c-74 -72 -111 -154 -111 -246
c0 -143.333 74.667 -251 224 -323c130 -62.667 303.667 -94 521 -94h184l6 -11l-226 -159h-58c-144 0 -263.667 13.333 -359 40c-114 32 -200.333 83.333 -259 154c-66.667 80.667 -100 187.334 -100 320.001c0 114 28.333 213.667 85 299
c44 66.667 108.333 127.667 193 183c24.667 16.667 93.334 55 206.001 115c-26.667 3.33301 -54.834 6.16602 -84.501 8.49902s-56.5 3.5 -80.5 3.5c-67.333 0 -122 -3 -164 -9c-14 -2 -57.667 -11 -131 -27c22.667 65.333 46.334 110.666 71.001 135.999
c55.333 56 142 84 260 84c64.667 0 134.667 -6.16699 210 -18.5s138.666 -18.5 189.999 -18.5c34 0 67.167 1.33301 99.5 4s66.166 6.33398 101.499 11.001l-40 -170c-27.333 -3.33301 -58.333 -8 -93 -14l-91 -17l-2 -56c0 -54.667 16.667 -91.334 50 -110.001
c20.667 -11.333 56 -17 106 -17h137v-174zM724.002 236.001l-74 -145l-164 84l76 145zM496.002 143.001l-75 -143l-165 85l78 144z" />
    <glyph glyph-name="uniFB78" unicode="&#x683;" horiz-adv-x="1085" arabic-form="initial" 
d="M1085 293l-1155 -0.00195312v174h815c-68 52.667 -125.333 93.667 -172 123c-58 36.667 -111 63.334 -159 80.001c-54 18.667 -108.667 28 -164 28c-34 0 -68.333 -2.33301 -103 -7c19.333 49.333 44.666 89 75.999 119c45.333 43.333 102.666 65 171.999 65
c68 0 148.333 -33.333 241 -100c46 -33.333 121 -96.666 225 -189.999c80.667 -72.667 135.334 -112 164.001 -118h60v-174zM744.001 55.998l-74 -145l-164 84l76 145zM516.001 -37.002l-75 -143l-165 85l78 144z" />
    <glyph glyph-name="uniFB79" unicode="&#x683;" horiz-adv-x="1085" arabic-form="medial" 
d="M1085 293l-1155 -0.00195312v174h815c-68 52.667 -125.333 93.667 -172 123c-58 36.667 -111 63.334 -159 80.001c-54 18.667 -108.667 28 -164 28c-34 0 -68.333 -2.33301 -103 -7c19.333 49.333 44.666 89 75.999 119c45.333 43.333 102.666 65 171.999 65
c68 0 148.333 -33.333 241 -100c46 -33.333 121 -96.666 225 -189.999c80.667 -72.667 135.334 -112 164.001 -118h60v-174zM744.001 55.998l-74 -145l-164 84l76 145zM516.001 -37.002l-75 -143l-165 85l78 144z" />
    <glyph glyph-name="afii62961" unicode="&#x686;" horiz-adv-x="1077" arabic-form="final" 
d="M1077 293l-136.998 0.000976562c-80.667 0 -138 15 -172 45s-51 79.667 -51 149c0 26 3.33301 58.333 10 97l11 58c-114 -34.667 -200 -64.334 -258 -89.001c-106.667 -45.333 -189.334 -96.666 -248.001 -153.999c-74 -72 -111 -154 -111 -246
c0 -143.333 74.667 -251 224 -323c130 -62.667 303.667 -94 521 -94h184l6 -11l-226 -159h-58c-144 0 -263.667 13.333 -359 40c-114 32 -200.333 83.333 -259 154c-66.667 80.667 -100 187.334 -100 320.001c0 114 28.333 213.667 85 299
c44 66.667 108.333 127.667 193 183c24.667 16.667 93.334 55 206.001 115c-26.667 3.33301 -54.834 6.16602 -84.501 8.49902s-56.5 3.5 -80.5 3.5c-67.333 0 -122 -3 -164 -9c-14 -2 -57.667 -11 -131 -27c22.667 65.333 46.334 110.666 71.001 135.999
c55.333 56 142 84 260 84c64.667 0 134.667 -6.16699 210 -18.5s138.666 -18.5 189.999 -18.5c34 0 67.167 1.33301 99.5 4s66.166 6.33398 101.499 11.001l-40 -170c-27.333 -3.33301 -58.333 -8 -93 -14l-91 -17l-2 -56c0 -54.667 16.667 -91.334 50 -110.001
c20.667 -11.333 56 -17 106 -17h137v-174zM720.002 248.001l-74 -145l-164 84l76 145zM686.002 -20.999l-74 -146l-163 86l77 146zM492.002 155.001l-75 -143l-165 85l78 144z" />
    <glyph glyph-name="afii62959" unicode="&#x686;" horiz-adv-x="1085" arabic-form="initial" 
d="M1085 293l-1155 -0.00195312v174h815c-68 52.667 -125.333 93.667 -172 123c-58 36.667 -111 63.334 -159 80.001c-54 18.667 -108.667 28 -164 28c-34 0 -68.333 -2.33301 -103 -7c19.333 49.333 44.666 89 75.999 119c45.333 43.333 102.666 65 171.999 65
c68 0 148.333 -33.333 241 -100c46 -33.333 121 -96.666 225 -189.999c80.667 -72.667 135.334 -112 164.001 -118h60v-174zM706.001 55.998l-74 -145l-164 84l76 145zM672.001 -213.002l-74 -146l-163 86l77 146zM478.001 -37.002l-75 -143l-165 85l78 144z" />
    <glyph glyph-name="afii62960" unicode="&#x686;" horiz-adv-x="1085" arabic-form="medial" 
d="M1085 293l-1155 -0.00195312v174h815c-68 52.667 -125.333 93.667 -172 123c-58 36.667 -111 63.334 -159 80.001c-54 18.667 -108.667 28 -164 28c-34 0 -68.333 -2.33301 -103 -7c19.333 49.333 44.666 89 75.999 119c45.333 43.333 102.666 65 171.999 65
c68 0 148.333 -33.333 241 -100c46 -33.333 121 -96.666 225 -189.999c80.667 -72.667 135.334 -112 164.001 -118h60v-174zM706.001 55.998l-74 -145l-164 84l76 145zM672.001 -213.002l-74 -146l-163 86l77 146zM478.001 -37.002l-75 -143l-165 85l78 144z" />
    <glyph glyph-name="uniFB7f" unicode="&#x687;" horiz-adv-x="1077" arabic-form="final" 
d="M1077 293l-136.998 0.000976562c-80.667 0 -138 15 -172 45s-51 79.667 -51 149c0 26 3.33301 58.333 10 97l11 58c-114 -34.667 -200 -64.334 -258 -89.001c-106.667 -45.333 -189.334 -96.666 -248.001 -153.999c-74 -72 -111 -154 -111 -246
c0 -143.333 74.667 -251 224 -323c130 -62.667 303.667 -94 521 -94h184l6 -11l-226 -159h-58c-144 0 -263.667 13.333 -359 40c-114 32 -200.333 83.333 -259 154c-66.667 80.667 -100 187.334 -100 320.001c0 114 28.333 213.667 85 299
c44 66.667 108.333 127.667 193 183c24.667 16.667 93.334 55 206.001 115c-26.667 3.33301 -54.834 6.16602 -84.501 8.49902s-56.5 3.5 -80.5 3.5c-67.333 0 -122 -3 -164 -9c-14 -2 -57.667 -11 -131 -27c22.667 65.333 46.334 110.666 71.001 135.999
c55.333 56 142 84 260 84c64.667 0 134.667 -6.16699 210 -18.5s138.666 -18.5 189.999 -18.5c34 0 67.167 1.33301 99.5 4s66.166 6.33398 101.499 11.001l-40 -170c-27.333 -3.33301 -58.333 -8 -93 -14l-91 -17l-2 -56c0 -54.667 16.667 -91.334 50 -110.001
c20.667 -11.333 56 -17 106 -17h137v-174zM729.002 344.001l-77 -146l-160 86l74 146zM777.002 94.001l-78 -144l-162 86l75 143zM547.002 4.00098l-76 -145l-162 84l74 145zM423.002 107.001l-160 90l70 144l167 -90z" />
    <glyph glyph-name="uniFB80" unicode="&#x687;" horiz-adv-x="1085" arabic-form="initial" 
d="M1085 293l-1155 -0.00195312v174h815c-68 52.667 -125.333 93.667 -172 123c-58 36.667 -111 63.334 -159 80.001c-54 18.667 -108.667 28 -164 28c-34 0 -68.333 -2.33301 -103 -7c19.333 49.333 44.666 89 75.999 119c45.333 43.333 102.666 65 171.999 65
c68 0 148.333 -33.333 241 -100c46 -33.333 121 -96.666 225 -189.999c80.667 -72.667 135.334 -112 164.001 -118h60v-174zM739.001 53.998l-77 -146l-160 86l74 146zM787.001 -196.002l-78 -144l-162 86l75 143zM557.001 -286.002l-76 -145l-162 84l74 145z
M433.001 -183.002l-160 90l70 144l167 -90z" />
    <glyph glyph-name="uniFB81" unicode="&#x687;" horiz-adv-x="1085" arabic-form="medial" 
d="M1085 293l-1155 -0.00195312v174h815c-68 52.667 -125.333 93.667 -172 123c-58 36.667 -111 63.334 -159 80.001c-54 18.667 -108.667 28 -164 28c-34 0 -68.333 -2.33301 -103 -7c19.333 49.333 44.666 89 75.999 119c45.333 43.333 102.666 65 171.999 65
c68 0 148.333 -33.333 241 -100c46 -33.333 121 -96.666 225 -189.999c80.667 -72.667 135.334 -112 164.001 -118h60v-174zM739.001 53.998l-77 -146l-160 86l74 146zM787.001 -196.002l-78 -144l-162 86l75 143zM557.001 -286.002l-76 -145l-162 84l74 145z
M433.001 -183.002l-160 90l70 144l167 -90z" />
    <glyph glyph-name="uniFB83" unicode="&#x68d;" horiz-adv-x="691" arabic-form="final" 
d="M691 293l-447.999 -0.000976562c-38 0 -72.167 11 -102.5 33s-45.5 48 -45.5 78c0 25.333 1.33301 48.333 4 69s7.66699 43.334 15 68.001h23c7.33301 -27.333 20.666 -47 39.999 -59c16 -10 38 -15 66 -15h387c0 119.333 -16.667 215.333 -50 288
c-41.333 90.667 -110.333 151 -207 181l15 194c115.333 -56.667 197 -147 245 -271c38.667 -100 58 -230.667 58 -392v-174zM624.001 55.999l-74 -145l-164 84l76 145zM396.001 -37.001l-75 -143l-165 85l78 144z" />
    <glyph glyph-name="uniFB85" unicode="&#x68c;" horiz-adv-x="691" arabic-form="final" 
d="M691 293l-447.999 -0.000976562c-38 0 -72.167 11 -102.5 33s-45.5 48 -45.5 78c0 25.333 1.33301 48.333 4 69s7.66699 43.334 15 68.001h23c7.33301 -27.333 20.666 -47 39.999 -59c16 -10 38 -15 66 -15h387c0 119.333 -16.667 215.333 -50 288
c-41.333 90.667 -110.333 151 -207 181l15 194c115.333 -56.667 197 -147 245 -271c38.667 -100 58 -230.667 58 -392v-174zM564.001 1456l-74 -145l-164 84l76 145zM336.001 1363l-75 -143l-165 85l78 144z" />
    <glyph glyph-name="uniFB87" unicode="&#x68e;" horiz-adv-x="691" arabic-form="final" 
d="M691 293l-447.999 -0.000976562c-38 0 -72.167 11 -102.5 33s-45.5 48 -45.5 78c0 25.333 1.33301 48.333 4 69s7.66699 43.334 15 68.001h23c7.33301 -27.333 20.666 -47 39.999 -59c16 -10 38 -15 66 -15h387c0 119.333 -16.667 215.333 -50 288
c-41.333 90.667 -110.333 151 -207 181l15 194c115.333 -56.667 197 -147 245 -271c38.667 -100 58 -230.667 58 -392v-174zM398.001 1654l-77 -146l-160 86l74 146zM595.001 1476l-78 -144l-162 86l75 143zM365.001 1386l-76 -145l-162 84l74 145z" />
    <glyph glyph-name="uniFB89" unicode="&#x688;" horiz-adv-x="691" arabic-form="final" 
d="M691 293l-447.999 -0.000976562c-38 0 -72.167 11 -102.5 33s-45.5 48 -45.5 78c0 25.333 1.33301 48.333 4 69s7.66699 43.334 15 68.001h23c7.33301 -27.333 20.666 -47 39.999 -59c16 -10 38 -15 66 -15h387c0 119.333 -16.667 215.333 -50 288
c-41.333 90.667 -110.333 151 -207 181l15 194c115.333 -56.667 197 -147 245 -271c38.667 -100 58 -230.667 58 -392v-174zM651.001 1191h-600.998v83h73c42 0 86.667 14.667 134 44c12.667 30.667 19 61 19 91c0 32.667 -3.33301 70.334 -10 113.001
c-5.33301 32.667 -12.333 67.667 -21 105c-4.66699 20 -11.334 45.667 -20.001 77l-29 14c5.33301 43.333 14.333 79 27 107c5.33301 -16 18.666 -28.333 39.999 -37c13.333 -5.33301 30.666 -9 51.999 -11c-1.33301 -20.667 -6.66602 -52.334 -15.999 -95.001
c-2.66699 0.666992 -8.66699 2 -18 4l-6 2c25.333 -84.667 38 -155.667 38 -213c0 -21.333 -2.33301 -46.333 -7 -75c-1.33301 -8.66699 -4 -24 -8 -46c54 31.333 89.667 51 107 59c48 22.667 88 34 120 34c84 0 126 -45.333 126 -136v-120zM575.003 1310
c0 33.333 -32 50 -96 50c-42 0 -95 -16.667 -159 -50c-26 -13.333 -47.333 -25.333 -64 -36h207c74.667 0 112 12 112 36z" />
    <glyph glyph-name="afii62962" unicode="&#x698;" horiz-adv-x="1001" arabic-form="final" 
d="M1001 293c0 -73.333 -31.332 -149.331 -93.999 -227.998c-54.667 -69.333 -122.667 -129 -204 -179c-77.333 -48 -141 -72 -191 -72c-46 0 -95.667 6.66699 -149 20c-40.667 10 -89.334 25.667 -146.001 47l-143 54l17 40l137.5 -26.5
c47.667 -9 90.834 -13.5 129.501 -13.5c85.333 0 174.333 27.333 267 82c84 50 155.667 113.167 215 189.5s89 145.166 89 206.499c0 52.667 -15.333 108 -46 166c-24.667 46.667 -59.334 94.667 -104.001 144l57 157c54.667 -50.667 95 -101.334 121 -152.001
c29.333 -57.333 44 -121.333 44 -192v-243zM778.001 1395l-77 -146l-160 86l74 146zM975.001 1217l-78 -144l-162 86l75 143zM745.001 1127l-76 -145l-162 84l74 145z" />
    <glyph glyph-name="uniFB8D" unicode="&#x691;" horiz-adv-x="1001" arabic-form="final" 
d="M1001 293c0 -73.333 -31.332 -149.331 -93.999 -227.998c-54.667 -69.333 -122.667 -129 -204 -179c-77.333 -48 -141 -72 -191 -72c-46 0 -95.667 6.66699 -149 20c-40.667 10 -89.334 25.667 -146.001 47l-143 54l17 40l137.5 -26.5
c47.667 -9 90.834 -13.5 129.501 -13.5c85.333 0 174.333 27.333 267 82c84 50 155.667 113.167 215 189.5s89 145.166 89 206.499c0 52.667 -15.333 108 -46 166c-24.667 46.667 -59.334 94.667 -104.001 144l57 157c54.667 -50.667 95 -101.334 121 -152.001
c29.333 -57.333 44 -121.333 44 -192v-243zM951.001 1062h-600.998v83h73c42 0 86.667 14.667 134 44c12.667 30.667 19 61 19 91c0 32.667 -3.33301 70.334 -10 113.001c-5.33301 32.667 -12.333 67.667 -21 105c-4.66699 20 -11.334 45.667 -20.001 77l-29 14
c5.33301 43.333 14.333 79 27 107c5.33301 -16 18.666 -28.333 39.999 -37c13.333 -5.33301 30.666 -9 51.999 -11c-1.33301 -20.667 -6.66602 -52.334 -15.999 -95.001c-2.66699 0.666992 -8.66699 2 -18 4l-6 2c25.333 -84.667 38 -155.667 38 -213
c0 -21.333 -2.33301 -46.333 -7 -75c-1.33301 -8.66699 -4 -24 -8 -46c54 31.333 89.667 51 107 59c48 22.667 88 34 120 34c84 0 126 -45.333 126 -136v-120zM875.003 1181c0 33.333 -32 50 -96 50c-42 0 -95 -16.667 -159 -50c-26 -13.333 -47.333 -25.333 -64 -36h207
c74.667 0 112 12 112 36z" />
    <glyph glyph-name="afii62964" unicode="&#x6a9;" horiz-adv-x="1910" arabic-form="final" 
d="M468 293c-159.333 0 -272.667 18.999 -340 56.999c-72 40.667 -108 110 -108 208c0 58.667 15.667 125.334 47 200.001c8.66699 20.667 27 59 55 115l34 -20c-22.667 -52 -37.5 -92 -44.5 -120s-10.5 -54.667 -10.5 -80c0 -72.667 38.333 -123.667 115 -153
c57.333 -22 141.333 -33 252 -33h426c106 0 195 13.667 267 41c86 32.667 129 78.667 129 138c0 44.667 -16.333 82.334 -49 113.001c-16.667 16 -49 36.667 -97 62l-33 -31l-118 90c-41.333 34.667 -62 61.667 -62 81c0 114.667 28 204.667 84 270
c52 60 141.667 114 269 162l282 110v-173l-209 -70c-114 -38.667 -194.333 -69.667 -241 -93c-39.333 -20 -59 -36 -59 -48c0 -15.333 21.333 -39 64 -71l81 -60c58.667 -44.667 111.667 -88.667 159 -132c40.667 -37.333 78.667 -76 114 -116
c22 -24.667 57.333 -67 106 -127c31.333 -38 62 -69.667 92 -95c40.667 -34 76 -51 106 -51h131v-174h-123c-54.667 0 -112 28 -172 84c-29.333 27.333 -71 76 -125 146c-32.667 42 -52.667 67.333 -60 76c-16.667 20 -42 46.333 -76 79
c0 -118.667 -37 -211.334 -111 -278.001c-79.333 -71.333 -197.333 -107 -354 -107h-421z" />
    <glyph glyph-name="afii52305" unicode="&#x6a9;" horiz-adv-x="807" arabic-form="initial" 
d="M807 293h-876.999v174h761c-46.667 70.667 -100 132.167 -160 184.5s-141 108.833 -243 169.5l-33 -31l-118 90c-41.333 34.667 -62 61.667 -62 81c0 114.667 28 204.667 84 270c52 60 141.667 114 269 162l282 110v-173l-209 -70
c-83.333 -27.333 -150.666 -52.333 -201.999 -75c-65.333 -28.667 -98 -50.667 -98 -66s21.333 -39 64 -71l81 -60c101.333 -76.667 189.666 -157 264.999 -241c81.333 -90 146.666 -183.333 195.999 -280v-174z" />
    <glyph glyph-name="afii52306" unicode="&#x6a9;" horiz-adv-x="1054" arabic-form="medial" 
d="M725 613c31.333 -38 61.999 -69.667 91.999 -95c40.667 -34 76 -51 106 -51h131v-174h-123c-54.667 0 -112 28 -172 84c-29.333 27.333 -71 76 -125 146c-32.667 42 -52.667 67.333 -60 76c-16.667 20 -42 46.333 -76 79c0 -118.667 -37 -211.334 -111 -278.001
c-79.333 -71.333 -197.333 -107 -354 -107h-103v174h108c106 0 195 13.667 267 41c86 32.667 129 78.667 129 138c0 44.667 -16.333 82.334 -49 113.001c-16.667 16 -49 36.667 -97 62l-33 -31l-118 90c-41.333 34.667 -62 61.667 -62 81c0 114.667 28 204.667 84 270
c52 60 141.667 114 269 162l282 110v-173l-209 -70c-83.333 -27.333 -150.666 -52.333 -201.999 -75c-65.333 -28.667 -98 -50.667 -98 -66s21.333 -39 64 -71l81 -60c58.667 -44.667 111.667 -88.667 159 -132c40.667 -37.333 78.667 -76 114 -116
c22 -24.667 57.333 -67 106 -127z" />
    <glyph glyph-name="afii62967" unicode="&#x6af;" horiz-adv-x="1910" arabic-form="final" 
d="M468 293c-159.333 0 -272.667 18.999 -340 56.999c-72 40.667 -108 110 -108 208c0 58.667 15.667 125.334 47 200.001c8.66699 20.667 27 59 55 115l34 -20c-22.667 -52 -37.5 -92 -44.5 -120s-10.5 -54.667 -10.5 -80c0 -72.667 38.333 -123.667 115 -153
c57.333 -22 141.333 -33 252 -33h426c106 0 195 13.667 267 41c86 32.667 129 78.667 129 138c0 44.667 -16.333 82.334 -49 113.001c-16.667 16 -49 36.667 -97 62l-33 -31l-118 90c-41.333 34.667 -62 61.667 -62 81c0 114.667 28 204.667 84 270
c52 60 141.667 114 269 162l282 110v-173l-209 -70c-114 -38.667 -194.333 -69.667 -241 -93c-39.333 -20 -59 -36 -59 -48c0 -15.333 21.333 -39 64 -71l81 -60c58.667 -44.667 111.667 -88.667 159 -132c40.667 -37.333 78.667 -76 114 -116
c22 -24.667 57.333 -67 106 -127c31.333 -38 62 -69.667 92 -95c40.667 -34 76 -51 106 -51h131v-174h-123c-54.667 0 -112 28 -172 84c-29.333 27.333 -71 76 -125 146c-32.667 42 -52.667 67.333 -60 76c-16.667 20 -42 46.333 -76 79
c0 -118.667 -37 -211.334 -111 -278.001c-79.333 -71.333 -197.333 -107 -354 -107h-421zM1566 1776v-169.001c-144 -52.667 -277.333 -108.667 -400 -168c-108.667 -52 -194 -99 -256 -141v106c21.333 24 64 57 128 99s140.667 86.333 230 133
c100 52.667 199.333 99.334 298 140.001z" />
    <glyph glyph-name="afii62965" unicode="&#x6af;" horiz-adv-x="807" arabic-form="initial" 
d="M807 293h-876.999v174h761c-46.667 70.667 -100 132.167 -160 184.5s-141 108.833 -243 169.5l-33 -31l-118 90c-41.333 34.667 -62 61.667 -62 81c0 114.667 28 204.667 84 270c52 60 141.667 114 269 162l282 110v-173l-209 -70
c-83.333 -27.333 -150.666 -52.333 -201.999 -75c-65.333 -28.667 -98 -50.667 -98 -66s21.333 -39 64 -71l81 -60c101.333 -76.667 189.666 -157 264.999 -241c81.333 -90 146.666 -183.333 195.999 -280v-174zM710.001 1794v-169.001
c-144 -52.667 -277.333 -108.667 -400 -168c-108.667 -52 -194 -99 -256 -141v106c21.333 24 64 57 128 99s140.667 86.333 230 133c100 52.667 199.333 99.334 298 140.001z" />
    <glyph glyph-name="afii62966" unicode="&#x6af;" horiz-adv-x="1054" arabic-form="medial" 
d="M725 613c31.333 -38 61.999 -69.667 91.999 -95c40.667 -34 76 -51 106 -51h131v-174h-123c-54.667 0 -112 28 -172 84c-29.333 27.333 -71 76 -125 146c-32.667 42 -52.667 67.333 -60 76c-16.667 20 -42 46.333 -76 79c0 -118.667 -37 -211.334 -111 -278.001
c-79.333 -71.333 -197.333 -107 -354 -107h-103v174h108c106 0 195 13.667 267 41c86 32.667 129 78.667 129 138c0 44.667 -16.333 82.334 -49 113.001c-16.667 16 -49 36.667 -97 62l-33 -31l-118 90c-41.333 34.667 -62 61.667 -62 81c0 114.667 28 204.667 84 270
c52 60 141.667 114 269 162l282 110v-173l-209 -70c-83.333 -27.333 -150.666 -52.333 -201.999 -75c-65.333 -28.667 -98 -50.667 -98 -66s21.333 -39 64 -71l81 -60c58.667 -44.667 111.667 -88.667 159 -132c40.667 -37.333 78.667 -76 114 -116
c22 -24.667 57.333 -67 106 -127zM709.999 1794v-169.001c-144 -52.667 -277.333 -108.667 -400 -168c-108.667 -52 -194 -99 -256 -141v106c21.333 24 64 57 128 99s140.667 86.333 230 133c100 52.667 199.333 99.334 298 140.001z" />
    <glyph glyph-name="uniFB97" unicode="&#x6b3;" horiz-adv-x="1910" arabic-form="final" 
d="M468 293c-159.333 0 -272.667 18.999 -340 56.999c-72 40.667 -108 110 -108 208c0 58.667 15.667 125.334 47 200.001c8.66699 20.667 27 59 55 115l34 -20c-22.667 -52 -37.5 -92 -44.5 -120s-10.5 -54.667 -10.5 -80c0 -72.667 38.333 -123.667 115 -153
c57.333 -22 141.333 -33 252 -33h426c106 0 195 13.667 267 41c86 32.667 129 78.667 129 138c0 44.667 -16.333 82.334 -49 113.001c-16.667 16 -49 36.667 -97 62l-33 -31l-118 90c-41.333 34.667 -62 61.667 -62 81c0 114.667 28 204.667 84 270
c52 60 141.667 114 269 162l282 110v-173l-209 -70c-114 -38.667 -194.333 -69.667 -241 -93c-39.333 -20 -59 -36 -59 -48c0 -15.333 21.333 -39 64 -71l81 -60c58.667 -44.667 111.667 -88.667 159 -132c40.667 -37.333 78.667 -76 114 -116
c22 -24.667 57.333 -67 106 -127c31.333 -38 62 -69.667 92 -95c40.667 -34 76 -51 106 -51h131v-174h-123c-54.667 0 -112 28 -172 84c-29.333 27.333 -71 76 -125 146c-32.667 42 -52.667 67.333 -60 76c-16.667 20 -42 46.333 -76 79
c0 -118.667 -37 -211.334 -111 -278.001c-79.333 -71.333 -197.333 -107 -354 -107h-421zM1566 1776v-169.001c-144 -52.667 -277.333 -108.667 -400 -168c-108.667 -52 -194 -99 -256 -141v106c21.333 24 64 57 128 99s140.667 86.333 230 133
c100 52.667 199.333 99.334 298 140.001zM804.999 55.998l-74 -145l-164 84l76 145zM850.999 -194.002l-74 -146l-163 86l77 146z" />
    <glyph glyph-name="uniFB98" unicode="&#x6b3;" horiz-adv-x="807" arabic-form="initial" 
d="M807 293h-876.999v174h761c-46.667 70.667 -100 132.167 -160 184.5s-141 108.833 -243 169.5l-33 -31l-118 90c-41.333 34.667 -62 61.667 -62 81c0 114.667 28 204.667 84 270c52 60 141.667 114 269 162l282 110v-173l-209 -70
c-83.333 -27.333 -150.666 -52.333 -201.999 -75c-65.333 -28.667 -98 -50.667 -98 -66s21.333 -39 64 -71l81 -60c101.333 -76.667 189.666 -157 264.999 -241c81.333 -90 146.666 -183.333 195.999 -280v-174zM710.001 1794v-169.001
c-144 -52.667 -277.333 -108.667 -400 -168c-108.667 -52 -194 -99 -256 -141v106c21.333 24 64 57 128 99s140.667 86.333 230 133c100 52.667 199.333 99.334 298 140.001zM505.001 55.999l-74 -145l-164 84l76 145zM551.001 -194.001l-74 -146l-163 86l77 146z" />
    <glyph glyph-name="uniFB99" unicode="&#x6b3;" horiz-adv-x="1054" arabic-form="medial" 
d="M725 613c31.333 -38 61.999 -69.667 91.999 -95c40.667 -34 76 -51 106 -51h131v-174h-123c-54.667 0 -112 28 -172 84c-29.333 27.333 -71 76 -125 146c-32.667 42 -52.667 67.333 -60 76c-16.667 20 -42 46.333 -76 79c0 -118.667 -37 -211.334 -111 -278.001
c-79.333 -71.333 -197.333 -107 -354 -107h-103v174h108c106 0 195 13.667 267 41c86 32.667 129 78.667 129 138c0 44.667 -16.333 82.334 -49 113.001c-16.667 16 -49 36.667 -97 62l-33 -31l-118 90c-41.333 34.667 -62 61.667 -62 81c0 114.667 28 204.667 84 270
c52 60 141.667 114 269 162l282 110v-173l-209 -70c-83.333 -27.333 -150.666 -52.333 -201.999 -75c-65.333 -28.667 -98 -50.667 -98 -66s21.333 -39 64 -71l81 -60c58.667 -44.667 111.667 -88.667 159 -132c40.667 -37.333 78.667 -76 114 -116
c22 -24.667 57.333 -67 106 -127zM709.999 1794v-169.001c-144 -52.667 -277.333 -108.667 -400 -168c-108.667 -52 -194 -99 -256 -141v106c21.333 24 64 57 128 99s140.667 86.333 230 133c100 52.667 199.333 99.334 298 140.001zM344.999 55.999l-74 -145l-164 84
l76 145zM390.999 -194.001l-74 -146l-163 86l77 146z" />
    <glyph glyph-name="uniFB9B" unicode="&#x6b1;" horiz-adv-x="1910" arabic-form="final" 
d="M468 293c-159.333 0 -272.667 18.999 -340 56.999c-72 40.667 -108 110 -108 208c0 58.667 15.667 125.334 47 200.001c8.66699 20.667 27 59 55 115l34 -20c-22.667 -52 -37.5 -92 -44.5 -120s-10.5 -54.667 -10.5 -80c0 -72.667 38.333 -123.667 115 -153
c57.333 -22 141.333 -33 252 -33h426c106 0 195 13.667 267 41c86 32.667 129 78.667 129 138c0 44.667 -16.333 82.334 -49 113.001c-16.667 16 -49 36.667 -97 62l-33 -31l-118 90c-41.333 34.667 -62 61.667 -62 81c0 114.667 28 204.667 84 270
c52 60 141.667 114 269 162l282 110v-173l-209 -70c-114 -38.667 -194.333 -69.667 -241 -93c-39.333 -20 -59 -36 -59 -48c0 -15.333 21.333 -39 64 -71l81 -60c58.667 -44.667 111.667 -88.667 159 -132c40.667 -37.333 78.667 -76 114 -116
c22 -24.667 57.333 -67 106 -127c31.333 -38 62 -69.667 92 -95c40.667 -34 76 -51 106 -51h131v-174h-123c-54.667 0 -112 28 -172 84c-29.333 27.333 -71 76 -125 146c-32.667 42 -52.667 67.333 -60 76c-16.667 20 -42 46.333 -76 79
c0 -118.667 -37 -211.334 -111 -278.001c-79.333 -71.333 -197.333 -107 -354 -107h-421zM1566 1776v-169.001c-144 -52.667 -277.333 -108.667 -400 -168c-108.667 -52 -194 -99 -256 -141v106c21.333 24 64 57 128 99s140.667 86.333 230 133
c100 52.667 199.333 99.334 298 140.001zM1334 1781l-54 -105l-144 44l56 105zM1125 1690l-54 -105l-144 44l56 105z" />
    <glyph glyph-name="uniFB9C" unicode="&#x6b1;" horiz-adv-x="807" arabic-form="initial" 
d="M807 293h-876.999v174h761c-46.667 70.667 -100 132.167 -160 184.5s-141 108.833 -243 169.5l-33 -31l-118 90c-41.333 34.667 -62 61.667 -62 81c0 114.667 28 204.667 84 270c52 60 141.667 114 269 162l282 110v-173l-209 -70
c-83.333 -27.333 -150.666 -52.333 -201.999 -75c-65.333 -28.667 -98 -50.667 -98 -66s21.333 -39 64 -71l81 -60c101.333 -76.667 189.666 -157 264.999 -241c81.333 -90 146.666 -183.333 195.999 -280v-174zM710.001 1794v-169.001
c-144 -52.667 -277.333 -108.667 -400 -168c-108.667 -52 -194 -99 -256 -141v106c21.333 24 64 57 128 99s140.667 86.333 230 133c100 52.667 199.333 99.334 298 140.001zM454.001 1781l-54 -105l-144 44l56 105zM245.001 1690l-54 -105l-144 44l56 105z" />
    <glyph glyph-name="uniFB9D" unicode="&#x6b1;" horiz-adv-x="1054" arabic-form="medial" 
d="M725 613c31.333 -38 61.999 -69.667 91.999 -95c40.667 -34 76 -51 106 -51h131v-174h-123c-54.667 0 -112 28 -172 84c-29.333 27.333 -71 76 -125 146c-32.667 42 -52.667 67.333 -60 76c-16.667 20 -42 46.333 -76 79c0 -118.667 -37 -211.334 -111 -278.001
c-79.333 -71.333 -197.333 -107 -354 -107h-103v174h108c106 0 195 13.667 267 41c86 32.667 129 78.667 129 138c0 44.667 -16.333 82.334 -49 113.001c-16.667 16 -49 36.667 -97 62l-33 -31l-118 90c-41.333 34.667 -62 61.667 -62 81c0 114.667 28 204.667 84 270
c52 60 141.667 114 269 162l282 110v-173l-209 -70c-83.333 -27.333 -150.666 -52.333 -201.999 -75c-65.333 -28.667 -98 -50.667 -98 -66s21.333 -39 64 -71l81 -60c58.667 -44.667 111.667 -88.667 159 -132c40.667 -37.333 78.667 -76 114 -116
c22 -24.667 57.333 -67 106 -127zM709.999 1794v-169.001c-144 -52.667 -277.333 -108.667 -400 -168c-108.667 -52 -194 -99 -256 -141v106c21.333 24 64 57 128 99s140.667 86.333 230 133c100 52.667 199.333 99.334 298 140.001zM453.999 1781l-54 -105l-144 44l56 105z
M244.999 1690l-54 -105l-144 44l56 105z" />
    <glyph glyph-name="uniFB9F" unicode="&#x6ba;" horiz-adv-x="1077" arabic-form="final" 
d="M1077 293c0 -148.667 -43.666 -257.999 -130.999 -327.999c-94 -75.333 -245.667 -113 -455 -113c-133.333 0 -235.333 23.333 -306 70c-77.333 51.333 -116 130 -116 236c0 57.333 7 115.333 21 174s33 117.667 57 177c14.667 36 40 91.333 76 166l40 -18
c-46.667 -96 -77.5 -171.667 -92.5 -227s-22.5 -106 -22.5 -152c0 -82.667 29.5 -145.5 88.5 -188.5s143.167 -64.5 252.5 -64.5c126 0 237.667 22.333 335 67c120.667 55.333 181 132.666 181 231.999c0 68 -10 131.333 -30 190c-17.333 52 -42 97.333 -74 136l83 205
c35.333 -54 59.666 -109 72.999 -165s20 -130.333 20 -223v-174z" />
    <glyph glyph-name="uniFBA1" unicode="&#x6bb;" horiz-adv-x="1077" arabic-form="final" 
d="M1077 293c0 -148.667 -43.666 -257.999 -130.999 -327.999c-94 -75.333 -245.667 -113 -455 -113c-133.333 0 -235.333 23.333 -306 70c-77.333 51.333 -116 130 -116 236c0 57.333 7 115.333 21 174s33 117.667 57 177c14.667 36 40 91.333 76 166l40 -18
c-46.667 -96 -77.5 -171.667 -92.5 -227s-22.5 -106 -22.5 -152c0 -82.667 29.5 -145.5 88.5 -188.5s143.167 -64.5 252.5 -64.5c126 0 237.667 22.333 335 67c120.667 55.333 181 132.666 181 231.999c0 68 -10 131.333 -30 190c-17.333 52 -42 97.333 -74 136l83 205
c35.333 -54 59.666 -109 72.999 -165s20 -130.333 20 -223v-174zM891.001 983.001h-600.998v83h73c42 0 86.667 14.667 134 44c12.667 30.667 19 61 19 91c0 32.667 -3.33301 70.334 -10 113.001c-5.33301 32.667 -12.333 67.667 -21 105
c-4.66699 20 -11.334 45.667 -20.001 77l-29 14c5.33301 43.333 14.333 79 27 107c5.33301 -16 18.666 -28.333 39.999 -37c13.333 -5.33301 30.666 -9 51.999 -11c-1.33301 -20.667 -6.66602 -52.334 -15.999 -95.001c-2.66699 0.666992 -8.66699 2 -18 4l-6 2
c25.333 -84.667 38 -155.667 38 -213c0 -21.333 -2.33301 -46.333 -7 -75c-1.33301 -8.66699 -4 -24 -8 -46c54 31.333 89.667 51 107 59c48 22.667 88 34 120 34c84 0 126 -45.333 126 -136v-120zM815.003 1102c0 33.333 -32 50 -96 50c-42 0 -95 -16.667 -159 -50
c-26 -13.333 -47.333 -25.333 -64 -36h207c74.667 0 112 12 112 36z" />
    <glyph glyph-name="uniFBA5" unicode="&#x6c0;" horiz-adv-x="768" arabic-form="final" 
d="M768 293h-143.002c-48 0 -90.333 41 -127 123c-27.333 61.333 -49.333 140.333 -66 237c-20 -37.333 -45.333 -66.333 -76 -87s-63 -31 -97 -31c-76.667 0 -140.5 5.16699 -191.5 15.5s-76.5 23.5 -76.5 39.5c0 57.333 37.333 120.833 112 190.5s168 130.5 280 182.5
c-1.33301 5.33301 -4.16602 19.333 -8.49902 42s-6.5 36.667 -6.5 42c0 22.667 7.66699 48 23 76c12.667 22.667 29.334 46 50.001 70c6.66699 -41.333 13.5 -81.333 20.5 -120s15.167 -78.667 24.5 -120l30 -172c16.667 -94.667 31.667 -164.667 45 -210
c20.667 -69.333 42 -104 64 -104h143v-174zM418.998 740l-19.001 109c-58 -20.667 -103.667 -42.167 -137 -64.5s-61.333 -51.833 -84 -88.5c14 -6 30.333 -10.667 49 -14s44.334 -5 77.001 -5c40 0 78 21 114 63zM425.997 1339c0 -16.667 -10.332 -31.667 -30.999 -45
c-14 -8.66699 -35 -18 -63 -28l-186 -64c0 30.667 33.333 57.667 100 81c-20.667 10.667 -36.334 21 -47.001 31c-14 12.667 -21 26 -21 40c0 20.667 17.667 49.667 53 87c39.333 41.333 74 62 104 62c13.333 0 24.833 -4.5 34.5 -13.5s14.5 -20.833 14.5 -35.5
c0 -9.33301 -2 -18.833 -6 -28.5s-9.66699 -20.5 -17 -32.5c-20.667 18.667 -43 28 -67 28c-14.667 0 -29.167 -3 -43.5 -9s-21.5 -13 -21.5 -21c0 -10 15.5 -23.667 46.5 -41s57.5 -26 79.5 -26c14.667 0 25.167 0.5 31.5 1.5s19.5 5.5 39.5 13.5z" />
    <glyph glyph-name="uniFBA6" unicode="&#x6c1;" horiz-adv-x="578" arabic-form="isolated" 
d="M536 588c0 -94 -15.333 -164.667 -46 -212c-47.333 -73.333 -134 -110 -260 -110c-48.667 0 -89 9.66699 -121 29c-36.667 22 -55 53.333 -55 94c0 46.667 11.667 100.667 35 162l65 157l-15 4l61 169c120.667 -63.333 192.667 -103.333 216 -120
c80 -56 120 -113.667 120 -173zM449 510c0 25.333 -36.667 59 -110 101c-31.333 18 -65 35.667 -101 53c-30 -32.667 -48 -53 -54 -61c-18.667 -26 -28 -50.667 -28 -74c0 -34 9.5 -60.5 28.5 -79.5s44.5 -28.5 76.5 -28.5c37.333 0 78 10.5 122 31.5s66 40.167 66 57.5z
" />
    <glyph glyph-name="uniFBA8" unicode="&#x6c1;" horiz-adv-x="500" arabic-form="initial" 
d="M500 293l-570 0.000976562v174h497c0 78 -9.33301 138 -28 180c-12.667 29.333 -44 70.666 -94 123.999l78 163c48 -60.667 78 -108 90 -142c18 -51.333 27 -136.333 27 -255v-244zM357 -182.999c0 -25.333 -9 -46.334 -27 -63.001s-39.667 -25 -65 -25
c-37.333 0 -67 18.333 -89 55c-18 31.333 -27 67 -27 107c0 96.667 46.667 178 140 244l22 -35c-62.667 -57.333 -94 -104.666 -94 -141.999c0 -18.667 23.333 -35.5 70 -50.5s70 -45.167 70 -90.5z" />
    <glyph glyph-name="uniFBA9" unicode="&#x6c1;" horiz-adv-x="656" arabic-form="medial" 
d="M656 293l-40.001 0.00195312c-69.333 0 -120.666 -12 -153.999 -36c-42 -30.667 -69.333 -77.334 -82 -140.001c-11.333 -54 -20.333 -81 -27 -81c-26 0 -49.333 35.667 -70 107c-18 60 -28.667 120.333 -32 181c-2.66699 58 -1.33398 102.333 3.99902 133
c-53.333 -109.333 -131.666 -164 -234.999 -164h-90v174h90c138.667 0 241.667 93.667 309 281l52 -18c-40 -116.667 -60 -225.667 -60 -327c0 -75.333 7.33301 -133 22 -173c1.33301 51.333 18.666 98.666 51.999 141.999c50.667 63.333 124.334 95 221.001 95h40v-174z
M478.999 -331.998c0 -25.333 -9 -46.334 -27 -63.001s-39.667 -25 -65 -25c-37.333 0 -67 18.333 -89 55c-18 31.333 -27 67 -27 107c0 96.667 46.667 178 140 244l22 -35c-62.667 -57.333 -94 -104.666 -94 -141.999c0 -18.667 23.333 -35.5 70 -50.5s70 -45.167 70 -90.5z
" />
    <glyph glyph-name="afii62828" unicode="&#x6be;" horiz-adv-x="768" arabic-form="final" 
d="M768 293h-143.002c-48 0 -90.333 41 -127 123c-27.333 61.333 -49.333 140.333 -66 237c-20 -37.333 -45.333 -66.333 -76 -87s-63 -31 -97 -31c-76.667 0 -140.5 5.16699 -191.5 15.5s-76.5 23.5 -76.5 39.5c0 57.333 37.333 120.833 112 190.5s168 130.5 280 182.5
c-1.33301 5.33301 -4.16602 19.333 -8.49902 42s-6.5 36.667 -6.5 42c0 22.667 7.66699 48 23 76c12.667 22.667 29.334 46 50.001 70c6.66699 -41.333 13.5 -81.333 20.5 -120s15.167 -78.667 24.5 -120l30 -172c16.667 -94.667 31.667 -164.667 45 -210
c20.667 -69.333 42 -104 64 -104h143v-174zM418.998 740l-19.001 109c-58 -20.667 -103.667 -42.167 -137 -64.5s-61.333 -51.833 -84 -88.5c14 -6 30.333 -10.667 49 -14s44.334 -5 77.001 -5c40 0 78 21 114 63z" />
    <glyph glyph-name="afii62827" unicode="&#x6be;" horiz-adv-x="807" arabic-form="medial" 
d="M807 293l-366.001 0.000976562c42.667 -20 79 -48.333 109 -85c38 -46 57 -96 57 -150c0 -52 -8 -93.667 -24 -125c-20 -39.333 -51.333 -59 -94 -59c-80 0 -153.333 27.667 -220 83c-80 66.667 -120 154.667 -120 264l2 72h-221v174h253c23.333 62 49 119.667 77 173
c35.333 67.333 72.333 122.333 111 165c44.667 49.333 86.667 74 126 74c20.667 0 38.834 -18 54.501 -54s23.5 -74.333 23.5 -115c0 -58.667 -15.333 -106.334 -46 -143.001c-18 -22 -72 -55.333 -162 -100h440v-174zM475.999 636.001c0 63.333 -13.334 95 -40.001 95
c-28.667 0 -63 -31.333 -103 -94c-19.333 -30 -46.666 -80 -81.999 -150c60.667 16.667 111.667 37.667 153 63c48 29.333 72 58 72 86zM515.998 74.001c0 52.667 -38.6689 103.331 -116.002 151.998c-63.333 40 -125.666 65.333 -186.999 76
c0 -73.333 17.667 -133.666 53 -180.999c42.667 -57.333 106.334 -86 191.001 -86c16 0 29.833 3.33301 41.5 10s17.5 16.334 17.5 29.001z" />
    <glyph glyph-name="uniFBAF" unicode="&#x6d2;" horiz-adv-x="1663" arabic-form="final" 
d="M1410 -425h-1169c-77.333 0 -124.333 4.66699 -141 14c-18.667 10.667 -28.334 26.667 -29.001 48c-1.33301 40 8 92.667 28 158c19.333 78 38.333 131.667 57 161c32.667 48 86.334 105.333 161.001 172c290.667 226 660.667 339 1110 339h236v-174h-242
c-454 0 -837.667 -121.333 -1151 -364c-78 -70.667 -117 -121 -117 -151c0 -19.333 31.333 -29 94 -29h1416v-9z" />
    <glyph glyph-name="uniFBB1" unicode="&#x6d3;" horiz-adv-x="1663" arabic-form="final" 
d="M1410 -425h-1169c-77.333 0 -124.333 4.66699 -141 14c-18.667 10.667 -28.334 26.667 -29.001 48c-1.33301 40 8 92.667 28 158c19.333 78 38.333 131.667 57 161c32.667 48 86.334 105.333 161.001 172c290.667 226 660.667 339 1110 339h236v-174h-242
c-454 0 -837.667 -121.333 -1151 -364c-78 -70.667 -117 -121 -117 -151c0 -19.333 31.333 -29 94 -29h1416v-9zM1366 759c0 -16.667 -10.332 -31.667 -30.999 -45c-14 -8.66699 -35 -18 -63 -28l-186 -64c0 30.667 33.333 57.667 100 81
c-20.667 10.667 -36.334 21 -47.001 31c-14 12.667 -21 26 -21 40c0 20.667 17.667 49.667 53 87c39.333 41.333 74 62 104 62c13.333 0 24.833 -4.5 34.5 -13.5s14.5 -20.833 14.5 -35.5c0 -9.33301 -2 -18.833 -6 -28.5s-9.66699 -20.5 -17 -32.5
c-20.667 18.667 -43 28 -67 28c-14.667 0 -29.167 -3 -43.5 -9s-21.5 -13 -21.5 -21c0 -10 15.5 -23.667 46.5 -41s57.5 -26 79.5 -26c14.667 0 25.167 0.5 31.5 1.5s19.5 5.5 39.5 13.5z" />
    <glyph glyph-name="uniFBD4" unicode="&#x6ad;" horiz-adv-x="1231" arabic-form="final" 
d="M865 904c0 -72.667 -24.335 -129 -73.002 -169s-117 -60 -205 -60c-40.667 0 -85.667 5.66699 -135 17c-30 6.66699 -74 19 -132 37l17 21c16 0 35.333 -1 58 -3c52.667 -4.66699 85.334 -7 98.001 -7c76.667 0 142.5 11.167 197.5 33.5s82.5 48.833 82.5 79.5
c0 14 -5.66699 26 -17 36s-24.666 15 -39.999 15c-17.333 0 -30.666 -0.333008 -39.999 -1l-70 -5c-16.667 0 -30.834 4.33301 -42.501 13s-17.5 23.334 -17.5 44.001c0 56 29.167 123 87.5 201s119.5 127.667 183.5 149l-19 -131c-46 -12.667 -81.333 -26.334 -106 -41.001
c-40 -23.333 -60 -51.333 -60 -84c0 -11.333 5.33301 -19.5 16 -24.5s23 -7.5 37 -7.5c12 0 22.667 0.666992 32 2l54 7c34.667 0 59 -9 73 -27s21 -49.667 21 -95zM1231 293l-738.001 -0.000976562c-159.333 0 -272.666 19 -339.999 57c-72 40.667 -108 110 -108 208
c0 58.667 15.667 125.334 47 200.001c8.66699 20.667 27 59 55 115l34 -20c-22.667 -52 -37.5 -92 -44.5 -120s-10.5 -54.667 -10.5 -80c0 -72.667 38.333 -123.667 115 -153c57.333 -22 141.333 -33 252 -33h637l-125 848l-52 25c0 46 4 89.167 12 129.5s20 79.5 36 117.5
l15 -11c0 -38.667 24 -67.667 72 -87l108 -40c0 -30.667 -3.83301 -65 -11.5 -103s-15.5 -67.667 -23.5 -89l-48 16l118 -784v-196zM657.997 1714l-77 -146l-160 86l74 146zM854.997 1536l-78 -144l-162 86l75 143zM624.997 1446l-76 -145l-162 84l74 145z" />
    <glyph glyph-name="uniFBD5" unicode="&#x6ad;" horiz-adv-x="807" arabic-form="initial" 
d="M807 293h-876.999v174h761c-46.667 70.667 -100 132.167 -160 184.5s-141 108.833 -243 169.5l-33 -31l-118 90c-41.333 34.667 -62 61.667 -62 81c0 114.667 28 204.667 84 270c52 60 141.667 114 269 162l282 110v-173l-209 -70
c-83.333 -27.333 -150.666 -52.333 -201.999 -75c-65.333 -28.667 -98 -50.667 -98 -66s21.333 -39 64 -71l81 -60c101.333 -76.667 189.666 -157 264.999 -241c81.333 -90 146.666 -183.333 195.999 -280v-174zM328.001 1709l-57 -96l-130 36l54 96zM503.001 1660l-57 -96
l-130 36l54 96zM286.001 1572l-57 -96l-130 36l54 96z" />
    <glyph glyph-name="uniFBD6" unicode="&#x6ad;" horiz-adv-x="807" arabic-form="medial" 
d="M807 293h-876.999v174h761c-46.667 70.667 -100 132.167 -160 184.5s-141 108.833 -243 169.5l-33 -31l-118 90c-41.333 34.667 -62 61.667 -62 81c0 114.667 28 204.667 84 270c52 60 141.667 114 269 162l282 110v-173l-209 -70
c-83.333 -27.333 -150.666 -52.333 -201.999 -75c-65.333 -28.667 -98 -50.667 -98 -66s21.333 -39 64 -71l81 -60c101.333 -76.667 189.666 -157 264.999 -241c81.333 -90 146.666 -183.333 195.999 -280v-174zM328.001 1709l-57 -96l-130 36l54 96zM503.001 1660l-57 -96
l-130 36l54 96zM286.001 1572l-57 -96l-130 36l54 96z" />
    <glyph glyph-name="uniFBD8" unicode="&#x6c7;" horiz-adv-x="885" arabic-form="final" 
d="M885 353c0 -110 -40.667 -219.335 -122 -328.002c-90.667 -121.333 -195.334 -182 -314.001 -182c-44 0 -89.333 5 -136 15c-34 7.33301 -78.333 20 -133 38l-130 45l17 35l117.5 -27.5c41 -9.66699 77.833 -14.5 110.5 -14.5c81.333 0 158.333 20.667 231 62
c56.667 32.667 113.334 80 170.001 142c28.667 31.333 69.334 82.333 122.001 153c-90 0 -157.333 14.333 -202 43c-50.667 32.667 -76 86.334 -76 161.001c0 68.667 16 132.334 48 191.001c37.333 68 84.666 102 141.999 102c58 0 99.667 -33.667 125 -101
c20 -52.667 30 -126 30 -220v-114zM822 461.998c-14.667 64 -32.332 108.333 -52.999 133c-18 21.333 -40 32 -66 32c-18.667 0 -34.834 -6.16699 -48.501 -18.5s-20.5 -27.833 -20.5 -46.5c0 -32.667 14.667 -57.5 44 -74.5s77.333 -25.5 144 -25.5zM849.002 1093
c0 -11.333 -0.999023 -22.998 -2.99902 -34.998l-6 -36l-83 50c-33.333 -36.667 -56 -61 -68 -73c-49.333 -48 -90.666 -72 -123.999 -72h-73c35.333 16.667 76.666 43.667 123.999 81c42.667 34 75 64 97 90c-20.667 12.667 -36.334 26 -47.001 40
c-13.333 17.333 -20 36.333 -20 57c0 44 12.833 82.833 38.5 116.5s53.5 50.5 83.5 50.5c17.333 0 33 -9.33301 47 -28s21 -41.334 21 -68.001c0 -12.667 -1.83301 -25.834 -5.5 -39.501s-12.167 -38.834 -25.5 -75.501c10.667 -9.33301 21.667 -18.333 33 -27
c7.33301 -7.33301 11 -17.666 11 -30.999zM774.003 1206c0 18 -6.33203 34.6689 -18.999 50.002s-25 23 -37 23c-6.66699 0 -11.834 -2.33301 -15.501 -7s-5.5 -9.33398 -5.5 -14.001c0 -14.667 8.33301 -30 25 -46l44 -34c5.33301 13.333 8 22.666 8 27.999z" />
    <glyph glyph-name="uniFBDA" unicode="&#x6c6;" horiz-adv-x="885" arabic-form="final" 
d="M885 353c0 -110 -40.667 -219.335 -122 -328.002c-90.667 -121.333 -195.334 -182 -314.001 -182c-44 0 -89.333 5 -136 15c-34 7.33301 -78.333 20 -133 38l-130 45l17 35l117.5 -27.5c41 -9.66699 77.833 -14.5 110.5 -14.5c81.333 0 158.333 20.667 231 62
c56.667 32.667 113.334 80 170.001 142c28.667 31.333 69.334 82.333 122.001 153c-90 0 -157.333 14.333 -202 43c-50.667 32.667 -76 86.334 -76 161.001c0 68.667 16 132.334 48 191.001c37.333 68 84.666 102 141.999 102c58 0 99.667 -33.667 125 -101
c20 -52.667 30 -126 30 -220v-114zM822 461.998c-14.667 64 -32.332 108.333 -52.999 133c-18 21.333 -40 32 -66 32c-18.667 0 -34.834 -6.16699 -48.501 -18.5s-20.5 -27.833 -20.5 -46.5c0 -32.667 14.667 -57.5 44 -74.5s77.333 -25.5 144 -25.5zM892.002 1200
l-136 -230h-56l-136 230h87l77 -140l77 140h87z" />
    <glyph glyph-name="uniFBDC" unicode="&#x6c8;" horiz-adv-x="885" arabic-form="final" 
d="M885 353c0 -110 -40.667 -219.335 -122 -328.002c-90.667 -121.333 -195.334 -182 -314.001 -182c-44 0 -89.333 5 -136 15c-34 7.33301 -78.333 20 -133 38l-130 45l17 35l117.5 -27.5c41 -9.66699 77.833 -14.5 110.5 -14.5c81.333 0 158.333 20.667 231 62
c56.667 32.667 113.334 80 170.001 142c28.667 31.333 69.334 82.333 122.001 153c-90 0 -157.333 14.333 -202 43c-50.667 32.667 -76 86.334 -76 161.001c0 68.667 16 132.334 48 191.001c37.333 68 84.666 102 141.999 102c58 0 99.667 -33.667 125 -101
c20 -52.667 30 -126 30 -220v-114zM822 461.998c-14.667 64 -32.332 108.333 -52.999 133c-18 21.333 -40 32 -66 32c-18.667 0 -34.834 -6.16699 -48.501 -18.5s-20.5 -27.833 -20.5 -46.5c0 -32.667 14.667 -57.5 44 -74.5s77.333 -25.5 144 -25.5zM730.002 1052
c0 -36 -15.668 -79 -47.001 -129l-9 4c2.66699 24.667 4 42.667 4 54c0 82.667 -15.667 232.667 -47 450c12.667 25.333 28.334 54.333 47.001 87c34.667 -222.667 52 -378 52 -466z" />
    <glyph glyph-name="uniFBDF" unicode="&#x6cb;" horiz-adv-x="885" arabic-form="final" 
d="M885 353c0 -110 -40.667 -219.335 -122 -328.002c-90.667 -121.333 -195.334 -182 -314.001 -182c-44 0 -89.333 5 -136 15c-34 7.33301 -78.333 20 -133 38l-130 45l17 35l117.5 -27.5c41 -9.66699 77.833 -14.5 110.5 -14.5c81.333 0 158.333 20.667 231 62
c56.667 32.667 113.334 80 170.001 142c28.667 31.333 69.334 82.333 122.001 153c-90 0 -157.333 14.333 -202 43c-50.667 32.667 -76 86.334 -76 161.001c0 68.667 16 132.334 48 191.001c37.333 68 84.666 102 141.999 102c58 0 99.667 -33.667 125 -101
c20 -52.667 30 -126 30 -220v-114zM822 461.998c-14.667 64 -32.332 108.333 -52.999 133c-18 21.333 -40 32 -66 32c-18.667 0 -34.834 -6.16699 -48.501 -18.5s-20.5 -27.833 -20.5 -46.5c0 -32.667 14.667 -57.5 44 -74.5s77.333 -25.5 144 -25.5zM698.002 1369l-77 -146
l-160 86l74 146zM895.002 1191l-78 -144l-162 86l75 143zM665.002 1101l-76 -145l-162 84l74 145z" />
    <glyph glyph-name="uniFBE1" unicode="&#x6c5;" horiz-adv-x="885" arabic-form="final" 
d="M885 353c0 -110 -40.666 -219.334 -121.999 -328.001c-90.667 -121.333 -195.334 -182 -314.001 -182c-44 0 -89.333 5 -136 15c-38.667 8 -83 20.667 -133 38l-130 45l17 35l118 -27c44 -10 80.667 -15 110 -15c82 0 159 20.667 231 62
c54.667 31.333 108 75.333 160 132l11 12c-11.333 -2 -22.333 -3 -33 -3c-30.667 0 -76.667 8.33301 -138 25c-80.667 22 -124.667 33 -132 33c-14 0 -31 -4.66699 -51 -14l-11 13c32 50 67.667 75 107 75c14 0 61 -11 141 -33c60.667 -16.667 101 -25 121 -25
c20.667 0 41.334 2.66699 62.001 8l55 72c-185.333 0 -278 68 -278 204c0 68.667 16 132.334 48 191.001c37.333 68 84.666 102 141.999 102c103.333 0 155 -107 155 -321v-114zM822.001 461.999c-25.333 110 -65 165 -119 165c-46 0 -69 -21.667 -69 -65
c0 -66.667 62.667 -100 188 -100z" />
    <glyph glyph-name="uniFBE3" unicode="&#x6c9;" horiz-adv-x="885" arabic-form="final" 
d="M885 353c0 -110 -40.667 -219.335 -122 -328.002c-90.667 -121.333 -195.334 -182 -314.001 -182c-44 0 -89.333 5 -136 15c-34 7.33301 -78.333 20 -133 38l-130 45l17 35l117.5 -27.5c41 -9.66699 77.833 -14.5 110.5 -14.5c81.333 0 158.333 20.667 231 62
c56.667 32.667 113.334 80 170.001 142c28.667 31.333 69.334 82.333 122.001 153c-90 0 -157.333 14.333 -202 43c-50.667 32.667 -76 86.334 -76 161.001c0 68.667 16 132.334 48 191.001c37.333 68 84.666 102 141.999 102c58 0 99.667 -33.667 125 -101
c20 -52.667 30 -126 30 -220v-114zM822 461.998c-14.667 64 -32.332 108.333 -52.999 133c-18 21.333 -40 32 -66 32c-18.667 0 -34.834 -6.16699 -48.501 -18.5s-20.5 -27.833 -20.5 -46.5c0 -32.667 14.667 -57.5 44 -74.5s77.333 -25.5 144 -25.5zM892.002 969.998h-87
l-77 140l-77 -140h-87l136 230h56z" />
    <glyph glyph-name="uniFBE5" unicode="&#x6d0;" horiz-adv-x="1205" arabic-form="final" 
d="M1205 293l-174.998 -0.000976562c-102.667 0 -179.834 -2.66699 -231.501 -8s-77.5 -16 -77.5 -32c0 -22 31 -33 93 -33c27.333 0 49 -0.666992 65 -2s51 -5 105 -11c32 -4 54 -9 66 -15c19.333 -10 29 -27.333 29 -52c0 -124.667 -41 -215.334 -123 -272.001
c-89.333 -62 -237 -93 -443 -93c-143.333 0 -257.333 24.333 -342 73c-90 52 -135 126 -135 222c0 77.333 21.333 159.333 64 246c15.333 31.333 55.666 98.333 120.999 201l40 -20l-75 -129c-38 -73.333 -57 -133.333 -57 -180c0 -82 42.667 -144.333 128 -187
c81.333 -40.667 193 -61 335 -61c95.333 0 179.333 7.33301 252 22c89.333 18 134 42.667 134 74c0 11.333 -5 19.833 -15 25.5s-26.667 8.5 -50 8.5c-18 2 -46.167 4.16699 -84.5 6.5s-63.5 3.5 -75.5 3.5c-42 0 -72 5.5 -90 16.5s-27 27.5 -27 49.5
c0 82.667 24.333 150.334 73 203.001c40 42.667 93.667 74.334 161 95.001c50.667 15.333 104 23 160 23h175v-174zM625.002 -255.001l-34 -70l-94 24l36 70zM651.002 -363.001l-34 -70l-94 24l36 70z" />
    <glyph glyph-name="uniFBE6" unicode="&#x6d0;" horiz-adv-x="500" arabic-form="initial" 
d="M500 293h-570v174h497c0 78.667 -9.33301 138.667 -28 180c-12.667 28.667 -44 70 -94 124l78 163c48 -60.667 78 -108 90 -142c18 -51.333 27 -136.333 27 -255v-244zM345 56l-74 -145l-164 84l76 145zM391 -194l-74 -146l-163 86l77 146z" />
    <glyph glyph-name="uniFBE7" unicode="&#x6d0;" horiz-adv-x="500" arabic-form="medial" 
d="M500 293h-570v174h497c0 78.667 -9.33301 138.667 -28 180c-12.667 28.667 -44 70 -94 124l78 163c48 -60.667 78 -108 90 -142c18 -51.333 27 -136.333 27 -255v-244zM345 56l-74 -145l-164 84l76 145zM391 -194l-74 -146l-163 86l77 146z" />
    <glyph glyph-name="afii52364" unicode="&#x6cc;" horiz-adv-x="1205" arabic-form="final" 
d="M1205 293l-174.998 -0.000976562c-102.667 0 -179.834 -2.66699 -231.501 -8s-77.5 -16 -77.5 -32c0 -22 31 -33 93 -33c27.333 0 49 -0.666992 65 -2s51 -5 105 -11c32 -4 54 -9 66 -15c19.333 -10 29 -27.333 29 -52c0 -124.667 -41 -215.334 -123 -272.001
c-89.333 -62 -237 -93 -443 -93c-143.333 0 -257.333 24.333 -342 73c-90 52 -135 126 -135 222c0 77.333 21.333 159.333 64 246c15.333 31.333 55.666 98.333 120.999 201l40 -20l-75 -129c-38 -73.333 -57 -133.333 -57 -180c0 -82 42.667 -144.333 128 -187
c81.333 -40.667 193 -61 335 -61c95.333 0 179.333 7.33301 252 22c89.333 18 134 42.667 134 74c0 11.333 -5 19.833 -15 25.5s-26.667 8.5 -50 8.5c-18 2 -46.167 4.16699 -84.5 6.5s-63.5 3.5 -75.5 3.5c-42 0 -72 5.5 -90 16.5s-27 27.5 -27 49.5
c0 82.667 24.333 150.334 73 203.001c40 42.667 93.667 74.334 161 95.001c50.667 15.333 104 23 160 23h175v-174z" />
    <glyph glyph-name="afii62831" unicode="&#x6cc;" horiz-adv-x="500" arabic-form="initial" 
d="M500 293h-570v174h497c0 78.667 -9.33301 138.667 -28 180c-12.667 28.667 -44 70 -94 124l78 163c48 -60.667 78 -108 90 -142c18 -51.333 27 -136.333 27 -255v-244zM495 93l-78 -144l-162 86l75 143zM265 3l-76 -145l-162 84l74 145z" />
    <glyph glyph-name="afii62832" unicode="&#x6cc;" horiz-adv-x="500" arabic-form="medial" 
d="M500 293h-570v174h497c0 78.667 -9.33301 138.667 -28 180c-12.667 28.667 -44 70 -94 124l78 163c48 -60.667 78 -108 90 -142c18 -51.333 27 -136.333 27 -255v-244zM495 93l-78 -144l-162 86l75 143zM265 3l-76 -145l-162 84l74 145z" />
    <glyph glyph-name="afii62882" unicode="&#xfc5e;" horiz-adv-x="463" arabic-form="isolated" 
d="M458 1813c-2.66699 -15.333 -6.16797 -30.835 -10.501 -46.502s-13.833 -35.167 -28.5 -58.5c10 -8 17.833 -15.5 23.5 -22.5s8.5 -14.833 8.5 -23.5c0 -12 -0.5 -25.167 -1.5 -39.5s-2.83301 -30.166 -5.5 -47.499l-86 67c-30.667 -36 -65.334 -64 -104.001 -84
c-47.333 -24 -100 -36 -158 -36l36 60c13.333 24.667 20 46.667 20 66c0 14.667 -3.33301 28.334 -10 41.001s-16.334 19 -29.001 19c-14 0 -27 -8 -39 -24l-26 -44c4.66699 47.333 10.667 81 18 101c13.333 36.667 35.333 55 66 55c22.667 0 40.334 -11.167 53.001 -33.5
s19 -47.5 19 -75.5c0 -11.333 -1.16699 -22.833 -3.5 -34.5s-6.16602 -28.5 -11.499 -50.5c46 13.333 90.333 35.333 133 66c-21.333 21.333 -35 36 -41 44c-12 16 -18 33 -18 51c0 31.333 12.333 62 37 92c30.667 36.667 62.667 55.334 96 56.001
c19.333 -0.666992 35.333 -7.33398 48 -20.001s17.334 -38.667 14.001 -78zM432.999 1476c0 -50 -8.66797 -90.998 -26.001 -122.998c-19.333 -36 -46 -54 -80 -54c-12 0 -23 2 -33 6s-21.333 10.333 -34 19c-13.333 -22.667 -26.333 -40.334 -39 -53.001
c-21.333 -21.333 -43.666 -32 -66.999 -32c-28 0 -49 9.33301 -63 28s-21 44.667 -21 78c0 17.333 2.33301 34.333 7 51s11.334 36 20.001 58l21 8c0 -5.33301 -0.666992 -14 -2 -26s-2 -22 -2 -30c0 -14.667 3 -27.834 9 -39.501s15 -17.5 27 -17.5
c28.667 0 51.667 18.667 69 56c8 16.667 18 50.334 30 101.001l21 6c5.33301 -32.667 9.66602 -52.667 12.999 -60c8 -20.667 21.333 -31 40 -31c25.333 0 45.333 16.667 60 50c12 27.333 18 55.666 18 84.999l21 6c2.66699 -12.667 5.16699 -27.167 7.5 -43.5
s3.5 -30.5 3.5 -42.5zM391.998 1786c0 16 -3.83301 30.333 -11.5 43s-15.5 19 -23.5 19c-12.667 0 -21 -2.83301 -25 -8.5s-6 -12.5 -6 -20.5c0 -12 6 -24.667 18 -38c3.33301 -4 15 -15 35 -33c8.66699 11.333 13 24 13 38z" />
    <glyph glyph-name="afii62883" unicode="&#xfc5f;" horiz-adv-x="433" arabic-form="isolated" 
d="M433 1767c0 -50.667 -8.66797 -92 -26.001 -124c-19.333 -35.333 -46 -53 -80 -53c-11.333 0 -22.5 2.16699 -33.5 6.5s-22.167 10.5 -33.5 18.5c-12.667 -22.667 -25.667 -40.334 -39 -53.001c-21.333 -20.667 -43.666 -31 -66.999 -31c-28 0 -49 9.33301 -63 28
s-21 44.334 -21 77.001c0 16.667 2.66699 34.667 8 54c3.33301 12 9.66602 30 18.999 54l21 8c0 -5.33301 -0.666992 -14 -2 -26s-2 -22 -2 -30c0 -15.333 2.83301 -28.5 8.5 -39.5s14.834 -16.5 27.501 -16.5c28.667 0 51.667 18.667 69 56
c8.66699 18 18.667 51.333 30 100l21 6c6 -32.667 10.333 -52.667 13 -60c8 -21.333 21.333 -32 40 -32c25.333 0 45.333 16.667 60 50c12 27.333 18 56 18 86l21 7l7.5 -46c2.33301 -14.667 3.5 -28 3.5 -40zM417.999 1571c0 -30.667 -17.333 -60.666 -52 -89.999
l-290 -117c0 29.333 14.333 57.666 43 84.999zM417.999 1448c0 -31.333 -17 -62 -51 -92l-291 -117c0 28.667 14.333 56.667 43 84z" />
    <glyph glyph-name="afii62884" unicode="&#xfc60;" horiz-adv-x="433" arabic-form="isolated" 
d="M418 1721c0 -30.667 -17.333 -61.333 -52 -92l-290 -115c0 28 15 55.667 45 83zM433 1476c0 -50 -8.66602 -90.9971 -25.999 -122.997c-19.333 -36 -46 -54 -80 -54c-11.333 0 -22.5 2.16699 -33.5 6.5s-22.167 10.5 -33.5 18.5
c-13.333 -22.667 -26.333 -40.334 -39 -53.001c-21.333 -21.333 -43.666 -32 -66.999 -32c-28 0 -49 9.33301 -63 28s-21 44.667 -21 78c0 17.333 2.66699 35.666 8 54.999c3.33301 12 9.66602 30 18.999 54l21 8c0 -5.33301 -0.666992 -14 -2 -26s-2 -22 -2 -30
c0 -14.667 3 -27.834 9 -39.501s15 -17.5 27 -17.5c28.667 0 51.667 18.667 69 56c8 16.667 18 50.334 30 101.001l21 6c5.33301 -32.667 9.66602 -52.667 12.999 -60c8 -20.667 21.333 -31 40 -31c25.333 0 45.333 16.667 60 50c12 27.333 18 55.666 18 84.999l21 6
c2.66699 -12.667 5.16699 -27.167 7.5 -43.5s3.5 -30.5 3.5 -42.5z" />
    <glyph glyph-name="afii62885" unicode="&#xfc61;" horiz-adv-x="433" arabic-form="isolated" 
d="M433 1585c-23.333 0 -48.0029 3.00098 -74.0029 9.00098c-5.33301 1.33301 -19.666 5.33301 -42.999 12c-38 -32.667 -64.667 -53.667 -80 -63c-40 -25.333 -78.667 -38 -116 -38c-9.33301 0 -18.5 1.5 -27.5 4.5s-18.5 7.16699 -28.5 12.5
c50.667 22.667 86.334 39 107.001 49c32 15.333 67.333 34 106 56c-15.333 14.667 -26.666 27 -33.999 37c-11.333 15.333 -17 30.666 -17 45.999c0 28.667 11.833 57.167 35.5 85.5s50.5 42.5 80.5 42.5c19.333 0 36.833 -6.83301 52.5 -20.5s23.5 -30.167 23.5 -49.5
c0 -14 -3.33301 -28.667 -10 -44c-2 -4.66699 -9.66699 -18.667 -23 -42c21.333 -10 34 -18.667 38 -26c6.66699 -11.333 10 -35 10 -71zM432.997 1478c0 -50 -8.66699 -91 -26 -123c-19.333 -36 -46 -54 -80 -54c-11.333 0 -22.5 2.16699 -33.5 6.5
s-22.167 10.5 -33.5 18.5c-13.333 -22.667 -26.333 -40.334 -39 -53.001c-21.333 -21.333 -43.666 -32 -66.999 -32c-28 0 -49 9.33301 -63 28s-21 44.667 -21 78c0 17.333 2.66699 35.666 8 54.999c3.33301 12 9.66602 30 18.999 54l21 8c0 -5.33301 -0.666992 -14 -2 -26
s-2 -22 -2 -30c0 -14.667 3 -27.834 9 -39.501s15 -17.5 27 -17.5c28.667 0 51.667 18.667 69 56c8 16.667 18 50 30 100l21 7c6 -33.333 10.333 -53.666 13 -60.999c8 -20.667 21.333 -31 40 -31c25.333 0 45.333 16.667 60 50c12 27.333 18 56 18 86l21 6
c2.66699 -13.333 5.16699 -28.166 7.5 -44.499s3.5 -30.166 3.5 -41.499zM351.997 1737c0 14 -5 27.668 -15 41.001s-22.333 20 -37 20c-4.66699 0 -8 -2.33301 -10 -7s-3 -10 -3 -16c0 -14 3.33301 -25.833 10 -35.5s21.667 -20.834 45 -33.501
c2 4.66699 4.16699 10 6.5 16s3.5 11 3.5 15z" />
    <glyph glyph-name="afii62886" unicode="&#xfc62;" horiz-adv-x="433" arabic-form="isolated" 
d="M433 1661c0 -50 -8.66602 -90.6641 -25.999 -121.997c-19.333 -35.333 -46 -53 -80 -53c-12 0 -23 2 -33 6s-21.333 10.333 -34 19c-13.333 -22.667 -26.333 -40.334 -39 -53.001c-21.333 -21.333 -43.666 -32 -66.999 -32c-28 0 -49 9.33301 -63 28s-21 44.667 -21 78
c0 16.667 2.66699 34.667 8 54c3.33301 12 9.66602 29.667 18.999 53l21 9c0 -6 -0.666992 -15 -2 -27s-2 -22 -2 -30c0 -14.667 3 -27.5 9 -38.5s15 -16.5 27 -16.5c28.667 0 51.667 18.333 69 55c8 17.333 18 50.666 30 99.999l21 6
c5.33301 -32.667 9.66602 -52.667 12.999 -60c8 -20.667 21.333 -31 40 -31c25.333 0 45.333 16.667 60 50c12 27.333 18 55.666 18 84.999l21 6c2.66699 -12.667 5.16699 -27.167 7.5 -43.5s3.5 -30.5 3.5 -42.5zM418.001 1447c0 -31.333 -17 -62.001 -51 -92.001
l-291 -116c0 28.667 14.667 56.334 44 83.001z" />
    <glyph glyph-name="afii64184" unicode="&#xfdf2;" horiz-adv-x="1262" arabic-form="isolated" 
d="M765 1361l-21 -8c-16.667 40.667 -42 78.667 -76 114c-8.66699 9.33301 -31 29 -67 59c6 28 21.333 42 46 42s44 -12 58 -36c20.667 -38 32.667 -61 36 -69c11.333 -28 19.333 -62 24 -102zM945 1315c0 -48 -8.83398 -89.834 -26.501 -125.501s-40.167 -53.5 -67.5 -53.5
c-15.333 0 -29.166 1.83301 -41.499 5.5s-26.166 9.83398 -41.499 18.501c-8 -20 -20.333 -38 -37 -54c-21.333 -20.667 -43 -31 -65 -31c-28 0 -49 9 -63 27s-21 42 -21 72c0 12 1.33301 25.5 4 40.5l6 34.5l30 12c0 -32 4.83301 -53.833 14.5 -65.5
s25.167 -17.5 46.5 -17.5c14 0 28.833 14.167 44.5 42.5s25.5 55.833 29.5 82.5l23 6c7.33301 -26.667 13 -42.334 17 -47.001c9.33301 -12.667 26.666 -19 51.999 -19c18 0 33.333 13.667 46 41c8 18 14.667 39.667 20 65l25 6c3.33301 -13.333 5 -26.666 5 -39.999z
M1235 473.999c0 -24.667 -1.66699 -47.3359 -5 -68.0029c-5.33301 -33.333 -14.666 -62.666 -27.999 -87.999l-13 -25c-79.333 0 -144.333 11.667 -195 35c-40.667 18.667 -76.334 47.667 -107.001 87c-26.667 -45.333 -58.667 -77.666 -96 -96.999
c-32 -16.667 -69 -25 -111 -25c-43.333 0 -85.5 12.667 -126.5 38s-68.833 58 -83.5 98c-26.667 -39.333 -58.667 -71.833 -96 -97.5s-73.666 -38.5 -108.999 -38.5c-74.667 0 -134 5.5 -178 16.5s-66 25.167 -66 42.5c0 56 38 119.5 114 190.5s168.667 131.833 278 182.5
c-2.66699 10 -5.83398 23.667 -9.50098 41s-5.5 31 -5.5 41c0 22.667 7.66699 48 23 76c12.667 22.667 29.667 46.667 51 72l27 -164c14 -82 28.333 -158.333 43 -229c8 -36.667 23.167 -63 45.5 -79s52.5 -24 90.5 -24c30.667 0 54.5 4.16699 71.5 12.5
s38.5 32.5 64.5 72.5l-59 273c-4.66699 21.333 -8 38.666 -10 51.999c-4.66699 26 -7 44.667 -7 56c0 23.333 7.66699 49 23 77c12.667 22.667 29.667 46.334 51 71.001c6 -34 12.833 -70.833 20.5 -110.5l34.5 -173.5l36 -172c10.667 -48.667 26.667 -85.667 48 -111
c26 -30.667 61 -46 105 -46c18.667 0 33.834 7.5 45.501 22.5s19.167 35.5 22.5 61.5l-58 273c-4.66699 28 -7.66699 45.333 -9 52c-4.66699 27.333 -7 46 -7 56c0 22.667 7.66699 48.334 23 77.001c13.333 24.667 29.666 48.334 48.999 71.001
c2.66699 -16.667 14 -70 34 -160c24 -109.333 41.333 -192 52 -248c18 -94.667 27 -158.334 27 -191.001zM448.999 499.997l-18.998 110.999c-58.667 -21.333 -103.334 -42.333 -134.001 -63c-34.667 -23.333 -63.667 -53.666 -87 -90.999
c14.667 -6 31.167 -10.667 49.5 -14s44.166 -5 77.499 -5c18.667 0 38 5.5 58 16.5s38.333 26.167 55 45.5z" />
    <glyph glyph-name="afii52399" unicode="&#x621;" horiz-adv-x="845" arabic-form="isolated" 
d="M744 537l-48.002 -164.004c-101.333 -25.333 -184.666 -53.666 -249.999 -84.999c-75.333 -36 -144 -83 -206 -141l-31 17c8.66699 30.667 20.334 59 35.001 85c12.667 22.667 27.334 43 44.001 61l-116 66c-34 22.667 -51 47.334 -51 74.001c0 21.333 13.333 60 40 116
c32 66.667 68.667 122.334 110 167.001c53.333 57.333 107 86 161 86c50 0 91.333 -14.333 124 -43c7.33301 -6 24.333 -24.333 51 -55l-52 -131l-44 30c-40.667 26 -74 39 -100 39c-32 0 -65.333 -9 -100 -27s-52 -38.333 -52 -61c0 -27.333 20 -53.666 60 -78.999
c31.333 -19.333 78.666 -40.333 141.999 -63c92.667 44.667 187 80.667 283 108z" />
    <glyph glyph-name="afii62753" unicode="&#x622;" horiz-adv-x="470" arabic-form="final" 
d="M470 293h-140.002c-45.333 0 -81.666 18.333 -108.999 55c-24 32 -42.167 79.667 -54.5 143s-21.833 141.333 -28.5 234l-12.5 232c-4.33301 79.333 -10 139.5 -17 180.5s-16.5 74.5 -28.5 100.5c-14.667 32 -35 60 -61 84l123 194c26 -80 44.333 -175.667 55 -287
c6.66699 -69.333 13.334 -233.333 20.001 -492c12 -118.667 29.333 -194.667 52 -228c18.667 -28 39 -42 61 -42h140v-174zM371.998 1654c-18.667 -21.333 -37.666 -37.667 -56.999 -49c-27.333 -16 -57 -24 -89 -24c-33.333 0 -65 5 -95 15c-66 22 -101 33 -105 33
c-8 0 -16 -1.16699 -24 -3.5s-17 -5.83301 -27 -10.5l-11 13c16.667 24 28.667 39 36 45c15.333 13.333 35.666 20 60.999 20c6 0 42.333 -10.667 109 -32c33.333 -10.667 61 -16 83 -16c35.333 0 70.333 7.66699 105 23z" />
    <glyph glyph-name="afii62754" unicode="&#x623;" horiz-adv-x="470" arabic-form="final" 
d="M296 1638c0 -16.667 -10.332 -31.667 -30.999 -45c-14 -8.66699 -35 -18 -63 -28l-186 -64c0 30.667 33.333 57.667 100 81c-20.667 10.667 -36.334 21 -47.001 31c-14 12.667 -21 26 -21 40c0 20.667 17.667 49.667 53 87c39.333 41.333 74 62 104 62
c13.333 0 24.833 -4.5 34.5 -13.5s14.5 -20.833 14.5 -35.5c0 -9.33301 -2 -18.833 -6 -28.5s-9.66699 -20.5 -17 -32.5c-20.667 18.667 -43 28 -67 28c-14.667 0 -29.167 -3 -43.5 -9s-21.5 -13 -21.5 -21c0 -10 15.5 -23.667 46.5 -41s57.5 -26 79.5 -26
c14.667 0 25.167 0.5 31.5 1.5s19.5 5.5 39.5 13.5zM470.001 293h-140.002c-45.333 0 -81.666 18.333 -108.999 55c-24 32 -42.167 79.667 -54.5 143s-21.833 141.333 -28.5 234l-12.5 232c-4.33301 79.333 -10 139.5 -17 180.5s-16.5 74.5 -28.5 100.5
c-14.667 32 -35 60 -61 84l123 194c26 -80 44.333 -175.667 55 -287c6.66699 -69.333 13.334 -233.333 20.001 -492c12 -118.667 29.333 -194.667 52 -228c18.667 -28 39 -42 61 -42h140v-174z" />
    <glyph glyph-name="afii62755" unicode="&#x624;" horiz-adv-x="885" arabic-form="final" 
d="M885 353c0 -110 -40.667 -219.335 -122 -328.002c-90.667 -121.333 -195.334 -182 -314.001 -182c-44 0 -89.333 5 -136 15c-34 7.33301 -78.333 20 -133 38l-130 45l17 35l117.5 -27.5c41 -9.66699 77.833 -14.5 110.5 -14.5c81.333 0 158.333 20.667 231 62
c56.667 32.667 113.334 80 170.001 142c28.667 31.333 69.334 82.333 122.001 153c-90 0 -157.333 14.333 -202 43c-50.667 32.667 -76 86.334 -76 161.001c0 68.667 16 132.334 48 191.001c37.333 68 84.666 102 141.999 102c58 0 99.667 -33.667 125 -101
c20 -52.667 30 -126 30 -220v-114zM822 461.998c-14.667 64 -32.332 108.333 -52.999 133c-18 21.333 -40 32 -66 32c-18.667 0 -34.834 -6.16699 -48.501 -18.5s-20.5 -27.833 -20.5 -46.5c0 -32.667 14.667 -57.5 44 -74.5s77.333 -25.5 144 -25.5zM645.002 972.998
c0 -16.667 -10.332 -31.667 -30.999 -45c-14 -8.66699 -35 -18 -63 -28l-186 -64c0 30.667 33.333 57.667 100 81c-20.667 10.667 -36.334 21 -47.001 31c-14 12.667 -21 26 -21 40c0 20.667 17.667 49.667 53 87c39.333 41.333 74 62 104 62
c13.333 0 24.833 -4.5 34.5 -13.5s14.5 -20.833 14.5 -35.5c0 -9.33301 -2 -18.833 -6 -28.5s-9.66699 -20.5 -17 -32.5c-20.667 18.667 -43 28 -67 28c-14.667 0 -29.167 -3 -43.5 -9s-21.5 -13 -21.5 -21c0 -10 15.5 -23.667 46.5 -41s57.5 -26 79.5 -26
c14.667 0 25.167 0.5 31.5 1.5s19.5 5.5 39.5 13.5z" />
    <glyph glyph-name="afii62756" unicode="&#x625;" horiz-adv-x="470" arabic-form="final" 
d="M470 293h-140.002c-45.333 0 -81.666 18.333 -108.999 55c-24 32 -42.167 79.667 -54.5 143s-21.833 141.333 -28.5 234l-12.5 232c-4.33301 79.333 -10 139.5 -17 180.5s-16.5 74.5 -28.5 100.5c-14.667 32 -35 60 -61 84l123 194c26 -80 44.333 -175.667 55 -287
c6.66699 -69.333 13.334 -233.333 20.001 -492c12 -118.667 29.333 -194.667 52 -228c18.667 -28 39 -42 61 -42h140v-174zM304.998 -55c0 -16.667 -10.332 -31.667 -30.999 -45c-14 -8.66699 -35 -18 -63 -28l-186 -64c0 30.667 33.333 57.667 100 81
c-20.667 10.667 -36.334 21 -47.001 31c-14 12.667 -21 26 -21 40c0 20.667 17.667 49.667 53 87c39.333 41.333 74 62 104 62c13.333 0 24.833 -4.5 34.5 -13.5s14.5 -20.833 14.5 -35.5c0 -9.33301 -2 -18.833 -6 -28.5s-9.66699 -20.5 -17 -32.5
c-20.667 18.667 -43 28 -67 28c-14.667 0 -29.167 -3 -43.5 -9s-21.5 -13 -21.5 -21c0 -10 15.5 -23.667 46.5 -41s57.5 -26 79.5 -26c14.667 0 25.167 0.5 31.5 1.5s19.5 5.5 39.5 13.5z" />
    <glyph glyph-name="afii62759" unicode="&#x626;" horiz-adv-x="1205" arabic-form="final" 
d="M1205 293l-174.998 -0.000976562c-102.667 0 -179.834 -2.66699 -231.501 -8s-77.5 -16 -77.5 -32c0 -22 31 -33 93 -33c27.333 0 49 -0.666992 65 -2s51 -5 105 -11c32 -4 54 -9 66 -15c19.333 -10 29 -27.333 29 -52c0 -124.667 -41 -215.334 -123 -272.001
c-89.333 -62 -237 -93 -443 -93c-143.333 0 -257.333 24.333 -342 73c-90 52 -135 126 -135 222c0 77.333 21.333 159.333 64 246c15.333 31.333 55.666 98.333 120.999 201l40 -20l-75 -129c-38 -73.333 -57 -133.333 -57 -180c0 -82 42.667 -144.333 128 -187
c81.333 -40.667 193 -61 335 -61c95.333 0 179.333 7.33301 252 22c89.333 18 134 42.667 134 74c0 11.333 -5 19.833 -15 25.5s-26.667 8.5 -50 8.5c-18 2 -46.167 4.16699 -84.5 6.5s-63.5 3.5 -75.5 3.5c-42 0 -72 5.5 -90 16.5s-27 27.5 -27 49.5
c0 82.667 24.333 150.334 73 203.001c40 42.667 93.667 74.334 161 95.001c50.667 15.333 104 23 160 23h175v-174zM352.002 841.999c0 -16.667 -10.332 -31.667 -30.999 -45c-14 -8.66699 -35 -18 -63 -28l-186 -64c0 30.667 33.333 57.667 100 81
c-20.667 10.667 -36.334 21 -47.001 31c-14 12.667 -21 26 -21 40c0 20.667 17.667 49.667 53 87c39.333 41.333 74 62 104 62c13.333 0 24.833 -4.5 34.5 -13.5s14.5 -20.833 14.5 -35.5c0 -9.33301 -2 -18.833 -6 -28.5s-9.66699 -20.5 -17 -32.5
c-20.667 18.667 -43 28 -67 28c-14.667 0 -29.167 -3 -43.5 -9s-21.5 -13 -21.5 -21c0 -10 15.5 -23.667 46.5 -41s57.5 -26 79.5 -26c14.667 0 25.167 0.5 31.5 1.5s19.5 5.5 39.5 13.5z" />
    <glyph glyph-name="afii62757" unicode="&#x626;" horiz-adv-x="500" arabic-form="initial" 
d="M500 293h-570v174h497c0 78.667 -9.33301 138.667 -28 180c-12.667 28.667 -44 70 -94 124l78 163c48 -60.667 78 -108 90 -142c18 -51.333 27 -136.333 27 -255v-244zM392 1205c0 -16.667 -10.332 -31.667 -30.999 -45c-14 -8.66699 -35 -18 -63 -28l-186 -64
c0 30.667 33.333 57.667 100 81c-20.667 10.667 -36.334 21 -47.001 31c-14 12.667 -21 26 -21 40c0 20.667 17.667 49.667 53 87c39.333 41.333 74 62 104 62c13.333 0 24.833 -4.5 34.5 -13.5s14.5 -20.833 14.5 -35.5c0 -9.33301 -2 -18.833 -6 -28.5
s-9.66699 -20.5 -17 -32.5c-20.667 18.667 -43 28 -67 28c-14.667 0 -29.167 -3 -43.5 -9s-21.5 -13 -21.5 -21c0 -10 15.5 -23.667 46.5 -41s57.5 -26 79.5 -26c14.667 0 25.167 0.5 31.5 1.5s19.5 5.5 39.5 13.5z" />
    <glyph glyph-name="afii62758" unicode="&#x626;" horiz-adv-x="500" arabic-form="medial" 
d="M500 293h-570v174h497c0 78.667 -9.33301 138.667 -28 180c-12.667 28.667 -44 70 -94 124l78 163c48 -60.667 78 -108 90 -142c18 -51.333 27 -136.333 27 -255v-244zM392 1205c0 -16.667 -10.332 -31.667 -30.999 -45c-14 -8.66699 -35 -18 -63 -28l-186 -64
c0 30.667 33.333 57.667 100 81c-20.667 10.667 -36.334 21 -47.001 31c-14 12.667 -21 26 -21 40c0 20.667 17.667 49.667 53 87c39.333 41.333 74 62 104 62c13.333 0 24.833 -4.5 34.5 -13.5s14.5 -20.833 14.5 -35.5c0 -9.33301 -2 -18.833 -6 -28.5
s-9.66699 -20.5 -17 -32.5c-20.667 18.667 -43 28 -67 28c-14.667 0 -29.167 -3 -43.5 -9s-21.5 -13 -21.5 -21c0 -10 15.5 -23.667 46.5 -41s57.5 -26 79.5 -26c14.667 0 25.167 0.5 31.5 1.5s19.5 5.5 39.5 13.5z" />
    <glyph glyph-name="afii62760" unicode="&#x627;" horiz-adv-x="470" arabic-form="final" 
d="M470 293h-140.002c-45.333 0 -81.666 18.333 -108.999 55c-24 32 -42.167 79.667 -54.5 143s-21.833 141.333 -28.5 234l-12.5 232c-4.33301 79.333 -10 139.5 -17 180.5s-16.5 74.5 -28.5 100.5c-14.667 32 -35 60 -61 84l123 194c26 -80 44.333 -175.667 55 -287
c6.66699 -69.333 13.334 -233.333 20.001 -492c12 -118.667 29.333 -194.667 52 -228c18.667 -28 39 -42 61 -42h140v-174z" />
    <glyph glyph-name="afii62763" unicode="&#x628;" horiz-adv-x="1461" arabic-form="final" 
d="M1461 293l-954 0.000976562c-128 0 -230 22.333 -306 67c-95.333 56 -143 143.667 -143 263c0 62 14 125.333 42 190c10 23.333 34 67.666 72 132.999l30 -19l-43 -92c-19.333 -47.333 -29 -89.666 -29 -126.999c0 -78.667 41.333 -139.667 124 -183
c74 -38.667 167.667 -58 281 -58h847v27c0 74.667 -9 135.5 -27 182.5s-48.667 87.167 -92 120.5l77 163c29.333 -36.667 47 -59.667 53 -69c45.333 -74.667 68 -183.334 68 -326.001v-272zM888 50.001l-78 -145l-162 84l74 146z" />
    <glyph glyph-name="afii62761" unicode="&#x628;" horiz-adv-x="500" arabic-form="initial" 
d="M500 293h-570v174h497c0 78.667 -9.33301 138.667 -28 180c-12.667 28.667 -44 70 -94 124l78 163c48 -60.667 78 -108 90 -142c18 -51.333 27 -136.333 27 -255v-244zM398 50l-78 -145l-162 84l74 146z" />
    <glyph glyph-name="afii62762" unicode="&#x628;" horiz-adv-x="500" arabic-form="medial" 
d="M500 293h-570v174h497c0 78.667 -9.33301 138.667 -28 180c-12.667 28.667 -44 70 -94 124l78 163c48 -60.667 78 -108 90 -142c18 -51.333 27 -136.333 27 -255v-244zM398 50l-78 -145l-162 84l74 146z" />
    <glyph glyph-name="afii62764" unicode="&#x629;" horiz-adv-x="768" arabic-form="final" 
d="M515 1488l-78 -144l-162 86l75 143zM285 1398l-76 -145l-162 84l74 145zM768 293h-143.002c-48 0 -90.333 41 -127 123c-27.333 61.333 -49.333 140.333 -66 237c-20 -37.333 -45.333 -66.333 -76 -87s-63 -31 -97 -31c-76.667 0 -140.5 5.16699 -191.5 15.5
s-76.5 23.5 -76.5 39.5c0 57.333 37.333 120.833 112 190.5s168 130.5 280 182.5c-1.33301 5.33301 -4.16602 19.333 -8.49902 42s-6.5 36.667 -6.5 42c0 22.667 7.66699 48 23 76c12.667 22.667 29.334 46 50.001 70c6.66699 -41.333 13.5 -81.333 20.5 -120
s15.167 -78.667 24.5 -120l30 -172c16.667 -94.667 31.667 -164.667 45 -210c20.667 -69.333 42 -104 64 -104h143v-174zM418.998 740l-19.001 109c-58 -20.667 -103.667 -42.167 -137 -64.5s-61.333 -51.833 -84 -88.5c14 -6 30.333 -10.667 49 -14s44.334 -5 77.001 -5
c40 0 78 21 114 63z" />
    <glyph glyph-name="afii62767" unicode="&#x62a;" horiz-adv-x="1461" arabic-form="final" 
d="M991 1201l-78 -144l-162 86l75 143zM761 1111l-76 -145l-162 84l74 145zM1461 293l-954 0.000976562c-128 0 -230 22.333 -306 67c-95.333 56 -143 143.667 -143 263c0 62 14 125.333 42 190c10 23.333 34 67.666 72 132.999l30 -19l-43 -92
c-19.333 -47.333 -29 -89.666 -29 -126.999c0 -78.667 41.333 -139.667 124 -183c74 -38.667 167.667 -58 281 -58h847v27c0 74.667 -9 135.5 -27 182.5s-48.667 87.167 -92 120.5l77 163c29.333 -36.667 47 -59.667 53 -69c45.333 -74.667 68 -183.334 68 -326.001v-272z
" />
    <glyph glyph-name="afii62765" unicode="&#x62a;" horiz-adv-x="500" arabic-form="initial" 
d="M495 1281l-78 -144l-162 86l75 143zM265 1191l-76 -145l-162 84l74 145zM500 293h-570v174h497c0 78.667 -9.33301 138.667 -28 180c-12.667 28.667 -44 70 -94 124l78 163c48 -60.667 78 -108 90 -142c18 -51.333 27 -136.333 27 -255v-244z" />
    <glyph glyph-name="afii62766" unicode="&#x62a;" horiz-adv-x="500" arabic-form="medial" 
d="M495 1281l-78 -144l-162 86l75 143zM265 1191l-76 -145l-162 84l74 145zM500 293h-570v174h497c0 78.667 -9.33301 138.667 -28 180c-12.667 28.667 -44 70 -94 124l78 163c48 -60.667 78 -108 90 -142c18 -51.333 27 -136.333 27 -255v-244z" />
    <glyph glyph-name="afii62770" unicode="&#x62b;" horiz-adv-x="1461" arabic-form="final" 
d="M794 1379l-77 -146l-160 86l74 146zM991 1201l-78 -144l-162 86l75 143zM761 1111l-76 -145l-162 84l74 145zM1461 293l-954 0.000976562c-128 0 -230 22.333 -306 67c-95.333 56 -143 143.667 -143 263c0 62 14 125.333 42 190c10 23.333 34 67.666 72 132.999l30 -19
l-43 -92c-19.333 -47.333 -29 -89.666 -29 -126.999c0 -78.667 41.333 -139.667 124 -183c74 -38.667 167.667 -58 281 -58h847v27c0 74.667 -9 135.5 -27 182.5s-48.667 87.167 -92 120.5l77 163c29.333 -36.667 47 -59.667 53 -69c45.333 -74.667 68 -183.334 68 -326.001
v-272z" />
    <glyph glyph-name="afii62768" unicode="&#x62b;" horiz-adv-x="500" arabic-form="initial" 
d="M298 1459l-77 -146l-160 86l74 146zM495 1281l-78 -144l-162 86l75 143zM265 1191l-76 -145l-162 84l74 145zM500 293h-570v174h497c0 78.667 -9.33301 138.667 -28 180c-12.667 28.667 -44 70 -94 124l78 163c48 -60.667 78 -108 90 -142
c18 -51.333 27 -136.333 27 -255v-244z" />
    <glyph glyph-name="afii62769" unicode="&#x62b;" horiz-adv-x="500" arabic-form="medial" 
d="M298 1459l-77 -146l-160 86l74 146zM495 1281l-78 -144l-162 86l75 143zM265 1191l-76 -145l-162 84l74 145zM500 293h-570v174h497c0 78.667 -9.33301 138.667 -28 180c-12.667 28.667 -44 70 -94 124l78 163c48 -60.667 78 -108 90 -142
c18 -51.333 27 -136.333 27 -255v-244z" />
    <glyph glyph-name="afii62773" unicode="&#x62c;" horiz-adv-x="1077" arabic-form="final" 
d="M1077 293l-136.998 0.000976562c-80.667 0 -138 15 -172 45s-51 79.667 -51 149c0 26 3.33301 58.333 10 97l11 58c-114 -34.667 -200 -64.334 -258 -89.001c-106.667 -45.333 -189.334 -96.666 -248.001 -153.999c-74 -72 -111 -154 -111 -246
c0 -143.333 74.667 -251 224 -323c130 -62.667 303.667 -94 521 -94h184l6 -11l-226 -159h-58c-144 0 -263.667 13.333 -359 40c-114 32 -200.333 83.333 -259 154c-66.667 80.667 -100 187.334 -100 320.001c0 114 28.333 213.667 85 299
c44 66.667 108.333 127.667 193 183c24.667 16.667 93.334 55 206.001 115c-26.667 3.33301 -54.834 6.16602 -84.501 8.49902s-56.5 3.5 -80.5 3.5c-67.333 0 -122 -3 -164 -9c-14 -2 -57.667 -11 -131 -27c22.667 65.333 46.334 110.666 71.001 135.999
c55.333 56 142 84 260 84c64.667 0 134.667 -6.16699 210 -18.5s138.666 -18.5 189.999 -18.5c34 0 67.167 1.33301 99.5 4s66.166 6.33398 101.499 11.001l-40 -170c-27.333 -3.33301 -58.333 -8 -93 -14l-91 -17l-2 -56c0 -54.667 16.667 -91.334 50 -110.001
c20.667 -11.333 56 -17 106 -17h137v-174zM703.002 185.001l-77 -146l-161 85l77 146z" />
    <glyph glyph-name="afii62771" unicode="&#x62c;" horiz-adv-x="1085" arabic-form="initial" 
d="M1085 293l-1155 -0.00195312v174h815c-68 52.667 -125.333 93.667 -172 123c-58 36.667 -111 63.334 -159 80.001c-54 18.667 -108.667 28 -164 28c-34 0 -68.333 -2.33301 -103 -7c19.333 49.333 44.666 89 75.999 119c45.333 43.333 102.666 65 171.999 65
c68 0 148.333 -33.333 241 -100c46 -33.333 121 -96.666 225 -189.999c80.667 -72.667 135.334 -112 164.001 -118h60v-174zM576.001 75.998l-75 -144l-163 84l78 146z" />
    <glyph glyph-name="afii62772" unicode="&#x62c;" horiz-adv-x="1085" arabic-form="medial" 
d="M1085 293l-1155 -0.00195312v174h815c-68 52.667 -125.333 93.667 -172 123c-58 36.667 -111 63.334 -159 80.001c-54 18.667 -108.667 28 -164 28c-34 0 -68.333 -2.33301 -103 -7c19.333 49.333 44.666 89 75.999 119c45.333 43.333 102.666 65 171.999 65
c68 0 148.333 -33.333 241 -100c46 -33.333 121 -96.666 225 -189.999c80.667 -72.667 135.334 -112 164.001 -118h60v-174zM576.001 75.998l-75 -144l-163 84l78 146z" />
    <glyph glyph-name="afii62776" unicode="&#x62d;" horiz-adv-x="1077" arabic-form="final" 
d="M1077 293l-136.998 0.000976562c-80.667 0 -138 15 -172 45s-51 79.667 -51 149c0 26 3.33301 58.333 10 97l11 58c-114 -34.667 -200 -64.334 -258 -89.001c-106.667 -45.333 -189.334 -96.666 -248.001 -153.999c-74 -72 -111 -154 -111 -246
c0 -143.333 74.667 -251 224 -323c130 -62.667 303.667 -94 521 -94h184l6 -11l-226 -159h-58c-144 0 -263.667 13.333 -359 40c-114 32 -200.333 83.333 -259 154c-66.667 80.667 -100 187.334 -100 320.001c0 114 28.333 213.667 85 299
c44 66.667 108.333 127.667 193 183c24.667 16.667 93.334 55 206.001 115c-26.667 3.33301 -54.834 6.16602 -84.501 8.49902s-56.5 3.5 -80.5 3.5c-67.333 0 -122 -3 -164 -9c-14 -2 -57.667 -11 -131 -27c22.667 65.333 46.334 110.666 71.001 135.999
c55.333 56 142 84 260 84c64.667 0 134.667 -6.16699 210 -18.5s138.666 -18.5 189.999 -18.5c34 0 67.167 1.33301 99.5 4s66.166 6.33398 101.499 11.001l-40 -170c-27.333 -3.33301 -58.333 -8 -93 -14l-91 -17l-2 -56c0 -54.667 16.667 -91.334 50 -110.001
c20.667 -11.333 56 -17 106 -17h137v-174z" />
    <glyph glyph-name="afii62774" unicode="&#x62d;" horiz-adv-x="1085" arabic-form="initial" 
d="M1085 293l-1155 -0.00195312v174h815c-68 52.667 -125.333 93.667 -172 123c-58 36.667 -111 63.334 -159 80.001c-54 18.667 -108.667 28 -164 28c-34 0 -68.333 -2.33301 -103 -7c19.333 49.333 44.666 89 75.999 119c45.333 43.333 102.666 65 171.999 65
c68 0 148.333 -33.333 241 -100c46 -33.333 121 -96.666 225 -189.999c80.667 -72.667 135.334 -112 164.001 -118h60v-174z" />
    <glyph glyph-name="afii62775" unicode="&#x62d;" horiz-adv-x="1085" arabic-form="medial" 
d="M1085 293l-1155 -0.00195312v174h815c-68 52.667 -125.333 93.667 -172 123c-58 36.667 -111 63.334 -159 80.001c-54 18.667 -108.667 28 -164 28c-34 0 -68.333 -2.33301 -103 -7c19.333 49.333 44.666 89 75.999 119c45.333 43.333 102.666 65 171.999 65
c68 0 148.333 -33.333 241 -100c46 -33.333 121 -96.666 225 -189.999c80.667 -72.667 135.334 -112 164.001 -118h60v-174z" />
    <glyph glyph-name="afii62779" unicode="&#x62e;" horiz-adv-x="1077" arabic-form="final" 
d="M680 1224l-77 -145l-161 84l75 146zM1077 293l-136.998 0.000976562c-80.667 0 -138 15 -172 45s-51 79.667 -51 149c0 26 3.33301 58.333 10 97l11 58c-114 -34.667 -200 -64.334 -258 -89.001c-106.667 -45.333 -189.334 -96.666 -248.001 -153.999
c-74 -72 -111 -154 -111 -246c0 -143.333 74.667 -251 224 -323c130 -62.667 303.667 -94 521 -94h184l6 -11l-226 -159h-58c-144 0 -263.667 13.333 -359 40c-114 32 -200.333 83.333 -259 154c-66.667 80.667 -100 187.334 -100 320.001c0 114 28.333 213.667 85 299
c44 66.667 108.333 127.667 193 183c24.667 16.667 93.334 55 206.001 115c-26.667 3.33301 -54.834 6.16602 -84.501 8.49902s-56.5 3.5 -80.5 3.5c-67.333 0 -122 -3 -164 -9c-14 -2 -57.667 -11 -131 -27c22.667 65.333 46.334 110.666 71.001 135.999
c55.333 56 142 84 260 84c64.667 0 134.667 -6.16699 210 -18.5s138.666 -18.5 189.999 -18.5c34 0 67.167 1.33301 99.5 4s66.166 6.33398 101.499 11.001l-40 -170c-27.333 -3.33301 -58.333 -8 -93 -14l-91 -17l-2 -56c0 -54.667 16.667 -91.334 50 -110.001
c20.667 -11.333 56 -17 106 -17h137v-174z" />
    <glyph glyph-name="afii62777" unicode="&#x62e;" horiz-adv-x="1085" arabic-form="initial" 
d="M606 1224l-76 -145l-162 84l74 146zM1085 293l-1155 -0.00195312v174h815c-68 52.667 -125.333 93.667 -172 123c-58 36.667 -111 63.334 -159 80.001c-54 18.667 -108.667 28 -164 28c-34 0 -68.333 -2.33301 -103 -7c19.333 49.333 44.666 89 75.999 119
c45.333 43.333 102.666 65 171.999 65c68 0 148.333 -33.333 241 -100c46 -33.333 121 -96.666 225 -189.999c80.667 -72.667 135.334 -112 164.001 -118h60v-174z" />
    <glyph glyph-name="afii62778" unicode="&#x62e;" horiz-adv-x="1085" arabic-form="medial" 
d="M606 1224l-76 -145l-162 84l74 146zM1085 293l-1155 -0.00195312v174h815c-68 52.667 -125.333 93.667 -172 123c-58 36.667 -111 63.334 -159 80.001c-54 18.667 -108.667 28 -164 28c-34 0 -68.333 -2.33301 -103 -7c19.333 49.333 44.666 89 75.999 119
c45.333 43.333 102.666 65 171.999 65c68 0 148.333 -33.333 241 -100c46 -33.333 121 -96.666 225 -189.999c80.667 -72.667 135.334 -112 164.001 -118h60v-174z" />
    <glyph glyph-name="afii62780" unicode="&#x62f;" horiz-adv-x="691" arabic-form="final" 
d="M691 293l-447.999 -0.000976562c-38 0 -72.167 11 -102.5 33s-45.5 48 -45.5 78c0 25.333 1.33301 48.333 4 69s7.66699 43.334 15 68.001h23c7.33301 -27.333 20.666 -47 39.999 -59c16 -10 38 -15 66 -15h387c0 119.333 -16.667 215.333 -50 288
c-41.333 90.667 -110.333 151 -207 181l15 194c115.333 -56.667 197 -147 245 -271c38.667 -100 58 -230.667 58 -392v-174z" />
    <glyph glyph-name="afii62781" unicode="&#x630;" horiz-adv-x="691" arabic-form="final" 
d="M425 1469l-78 -145l-160 86l73 145zM691 293l-447.999 -0.000976562c-38 0 -72.167 11 -102.5 33s-45.5 48 -45.5 78c0 25.333 1.33301 48.333 4 69s7.66699 43.334 15 68.001h23c7.33301 -27.333 20.666 -47 39.999 -59c16 -10 38 -15 66 -15h387
c0 119.333 -16.667 215.333 -50 288c-41.333 90.667 -110.333 151 -207 181l15 194c115.333 -56.667 197 -147 245 -271c38.667 -100 58 -230.667 58 -392v-174z" />
    <glyph glyph-name="afii62782" unicode="&#x631;" horiz-adv-x="1001" arabic-form="final" 
d="M1001 293c0 -73.333 -31.332 -149.331 -93.999 -227.998c-54.667 -69.333 -122.667 -129 -204 -179c-77.333 -48 -141 -72 -191 -72c-46 0 -95.667 6.66699 -149 20c-40.667 10 -89.334 25.667 -146.001 47l-143 54l17 40l137.5 -26.5
c47.667 -9 90.834 -13.5 129.501 -13.5c85.333 0 174.333 27.333 267 82c84 50 155.667 113.167 215 189.5s89 145.166 89 206.499c0 52.667 -15.333 108 -46 166c-24.667 46.667 -59.334 94.667 -104.001 144l57 157c54.667 -50.667 95 -101.334 121 -152.001
c29.333 -57.333 44 -121.333 44 -192v-243z" />
    <glyph glyph-name="afii62783" unicode="&#x632;" horiz-adv-x="1001" arabic-form="final" 
d="M851 1224l-77 -145l-161 84l75 146zM1001 293c0 -73.333 -31.332 -149.331 -93.999 -227.998c-54.667 -69.333 -122.667 -129 -204 -179c-77.333 -48 -141 -72 -191 -72c-46 0 -95.667 6.66699 -149 20c-40.667 10 -89.334 25.667 -146.001 47l-143 54l17 40l137.5 -26.5
c47.667 -9 90.834 -13.5 129.501 -13.5c85.333 0 174.333 27.333 267 82c84 50 155.667 113.167 215 189.5s89 145.166 89 206.499c0 52.667 -15.333 108 -46 166c-24.667 46.667 -59.334 94.667 -104.001 144l57 157c54.667 -50.667 95 -101.334 121 -152.001
c29.333 -57.333 44 -121.333 44 -192v-243z" />
    <glyph glyph-name="afii62786" unicode="&#x633;" horiz-adv-x="1682" arabic-form="final" 
d="M1682 293h-79.0029c-40 0 -75.167 5.5 -105.5 16.5s-61.166 28.5 -92.499 52.5c-28 -25.333 -53 -42.333 -75 -51c-31.333 -12 -77 -18 -137 -18h-123c0 -61.333 -14.667 -121 -44 -179c-38 -75.333 -96 -135 -174 -179c-98 -55.333 -220.667 -83 -368 -83
c-133.333 0 -235.333 23.333 -306 70c-77.333 51.333 -116 130 -116 236c0 57.333 7 115.333 21 174s33 117.667 57 177c14.667 36 40 91.333 76 166l40 -18c-46.667 -96 -77.5 -171.667 -92.5 -227s-22.5 -106 -22.5 -152c0 -82.667 29.5 -145.5 88.5 -188.5
s143.167 -64.5 252.5 -64.5c128 0 242.333 22.333 343 67c125.333 55.333 188 132.666 188 231.999c0 66.667 -12.333 130 -37 190c-19.333 47.333 -46.666 92.666 -81.999 135.999l83 205c33.333 -54.667 56 -103 68 -145c16.667 -59.333 25 -140.333 25 -243h123
c63.333 0 108.333 9.66699 135 29c23.333 16.667 35 42.334 35 77.001c0 19.333 -1.16699 38.833 -3.5 58.5s-5.83301 41.167 -10.5 64.5l40 60l16 -97c14.667 -65.333 34.334 -112.333 59.001 -141c27.333 -32 66 -48 116 -48c15.333 0 27.166 4.83301 35.499 14.5
s12.5 21.834 12.5 36.501c0 33.333 -10.333 69 -31 107c-15.333 28 -35.666 56 -60.999 84l67 109c31.333 -51.333 50.333 -86.333 57 -105c14.667 -42 22 -103 22 -183v-240z" />
    <glyph glyph-name="afii62784" unicode="&#x633;" horiz-adv-x="1087" arabic-form="initial" 
d="M1087 293l-76.999 0.000976562c-42.667 0 -79.334 5.83301 -110.001 17.5s-58.667 28.167 -84 49.5c-31.333 -24.667 -58.666 -41 -81.999 -49c-34 -12 -80.667 -18 -140 -18h-65c-34.667 0 -69.334 6.66699 -104.001 20c-22.667 8.66699 -50.667 23 -84 43
c-32 -24 -61.333 -40.5 -88 -49.5s-70 -13.5 -130 -13.5h-193v174h193c54 0 92.667 4.66699 116 14c38.667 15.333 58 46 58 92c0 19.333 -1 38.666 -3 57.999s-5.66699 41 -11 65l41 60c18.667 -61.333 34 -106 46 -134c21.333 -48.667 44.666 -85.334 69.999 -110.001
c30.667 -30 67.334 -45 110.001 -45h67c50 0 87 7.66699 111 23c26.667 17.333 40 45 40 83c0 20.667 -1.33301 40.667 -4 60s-6.33398 40.333 -11.001 63l42 60l21 -94c18 -74 40 -125.333 66 -154c22.667 -25.333 53.334 -38 92.001 -38c18 0 32.5 5.5 43.5 16.5
s16.5 25.167 16.5 42.5c0 37.333 -13.667 76.666 -41 117.999c-4.66699 6.66699 -21 28.334 -49 65.001l65 109c27.333 -41.333 46 -77 56 -107c14.667 -45.333 22 -105.666 22 -180.999v-240z" />
    <glyph glyph-name="afii62785" unicode="&#x633;" horiz-adv-x="1087" arabic-form="medial" 
d="M1087 293l-76.999 0.000976562c-42.667 0 -79.334 5.83301 -110.001 17.5s-58.667 28.167 -84 49.5c-31.333 -24.667 -58.666 -41 -81.999 -49c-34 -12 -80.667 -18 -140 -18h-65c-34.667 0 -69.334 6.66699 -104.001 20c-22.667 8.66699 -50.667 23 -84 43
c-32 -24 -61.333 -40.5 -88 -49.5s-70 -13.5 -130 -13.5h-193v174h193c54 0 92.667 4.66699 116 14c38.667 15.333 58 46 58 92c0 19.333 -1 38.666 -3 57.999s-5.66699 41 -11 65l41 60c18.667 -61.333 34 -106 46 -134c21.333 -48.667 44.666 -85.334 69.999 -110.001
c30.667 -30 67.334 -45 110.001 -45h67c50 0 87 7.66699 111 23c26.667 17.333 40 45 40 83c0 20.667 -1.33301 40.667 -4 60s-6.33398 40.333 -11.001 63l42 60l21 -94c18 -74 40 -125.333 66 -154c22.667 -25.333 53.334 -38 92.001 -38c18 0 32.5 5.5 43.5 16.5
s16.5 25.167 16.5 42.5c0 37.333 -13.667 76.666 -41 117.999c-4.66699 6.66699 -21 28.334 -49 65.001l65 109c27.333 -41.333 46 -77 56 -107c14.667 -45.333 22 -105.666 22 -180.999v-240z" />
    <glyph glyph-name="afii62789" unicode="&#x634;" horiz-adv-x="1682" arabic-form="final" 
d="M1406 1379l-77 -146l-160 86l74 146zM1603 1201l-78 -144l-162 86l75 143zM1373 1111l-76 -145l-162 84l74 145zM1682 293h-79.0029c-40 0 -75.167 5.5 -105.5 16.5s-61.166 28.5 -92.499 52.5c-28 -25.333 -53 -42.333 -75 -51c-31.333 -12 -77 -18 -137 -18h-123
c0 -61.333 -14.667 -121 -44 -179c-38 -75.333 -96 -135 -174 -179c-98 -55.333 -220.667 -83 -368 -83c-133.333 0 -235.333 23.333 -306 70c-77.333 51.333 -116 130 -116 236c0 57.333 7 115.333 21 174s33 117.667 57 177c14.667 36 40 91.333 76 166l40 -18
c-46.667 -96 -77.5 -171.667 -92.5 -227s-22.5 -106 -22.5 -152c0 -82.667 29.5 -145.5 88.5 -188.5s143.167 -64.5 252.5 -64.5c128 0 242.333 22.333 343 67c125.333 55.333 188 132.666 188 231.999c0 66.667 -12.333 130 -37 190
c-19.333 47.333 -46.666 92.666 -81.999 135.999l83 205c33.333 -54.667 56 -103 68 -145c16.667 -59.333 25 -140.333 25 -243h123c63.333 0 108.333 9.66699 135 29c23.333 16.667 35 42.334 35 77.001c0 19.333 -1.16699 38.833 -3.5 58.5s-5.83301 41.167 -10.5 64.5
l40 60l16 -97c14.667 -65.333 34.334 -112.333 59.001 -141c27.333 -32 66 -48 116 -48c15.333 0 27.166 4.83301 35.499 14.5s12.5 21.834 12.5 36.501c0 33.333 -10.333 69 -31 107c-15.333 28 -35.666 56 -60.999 84l67 109c31.333 -51.333 50.333 -86.333 57 -105
c14.667 -42 22 -103 22 -183v-240z" />
    <glyph glyph-name="afii62787" unicode="&#x634;" horiz-adv-x="1087" arabic-form="initial" 
d="M801 1379l-77 -146l-160 86l74 146zM998 1201l-78 -144l-162 86l75 143zM768 1111l-76 -145l-162 84l74 145zM1087 293l-76.999 0.000976562c-42.667 0 -79.334 5.83301 -110.001 17.5s-58.667 28.167 -84 49.5c-31.333 -24.667 -58.666 -41 -81.999 -49
c-34 -12 -80.667 -18 -140 -18h-65c-34.667 0 -69.334 6.66699 -104.001 20c-22.667 8.66699 -50.667 23 -84 43c-32 -24 -61.333 -40.5 -88 -49.5s-70 -13.5 -130 -13.5h-193v174h193c54 0 92.667 4.66699 116 14c38.667 15.333 58 46 58 92c0 19.333 -1 38.666 -3 57.999
s-5.66699 41 -11 65l41 60c18.667 -61.333 34 -106 46 -134c21.333 -48.667 44.666 -85.334 69.999 -110.001c30.667 -30 67.334 -45 110.001 -45h67c50 0 87 7.66699 111 23c26.667 17.333 40 45 40 83c0 20.667 -1.33301 40.667 -4 60s-6.33398 40.333 -11.001 63l42 60
l21 -94c18 -74 40 -125.333 66 -154c22.667 -25.333 53.334 -38 92.001 -38c18 0 32.5 5.5 43.5 16.5s16.5 25.167 16.5 42.5c0 37.333 -13.667 76.666 -41 117.999c-4.66699 6.66699 -21 28.334 -49 65.001l65 109c27.333 -41.333 46 -77 56 -107
c14.667 -45.333 22 -105.666 22 -180.999v-240z" />
    <glyph glyph-name="afii62788" unicode="&#x634;" horiz-adv-x="1087" arabic-form="medial" 
d="M801 1379l-77 -146l-160 86l74 146zM998 1201l-78 -144l-162 86l75 143zM768 1111l-76 -145l-162 84l74 145zM1087 293l-76.999 0.000976562c-42.667 0 -79.334 5.83301 -110.001 17.5s-58.667 28.167 -84 49.5c-31.333 -24.667 -58.666 -41 -81.999 -49
c-34 -12 -80.667 -18 -140 -18h-65c-34.667 0 -69.334 6.66699 -104.001 20c-22.667 8.66699 -50.667 23 -84 43c-32 -24 -61.333 -40.5 -88 -49.5s-70 -13.5 -130 -13.5h-193v174h193c54 0 92.667 4.66699 116 14c38.667 15.333 58 46 58 92c0 19.333 -1 38.666 -3 57.999
s-5.66699 41 -11 65l41 60c18.667 -61.333 34 -106 46 -134c21.333 -48.667 44.666 -85.334 69.999 -110.001c30.667 -30 67.334 -45 110.001 -45h67c50 0 87 7.66699 111 23c26.667 17.333 40 45 40 83c0 20.667 -1.33301 40.667 -4 60s-6.33398 40.333 -11.001 63l42 60
l21 -94c18 -74 40 -125.333 66 -154c22.667 -25.333 53.334 -38 92.001 -38c18 0 32.5 5.5 43.5 16.5s16.5 25.167 16.5 42.5c0 37.333 -13.667 76.666 -41 117.999c-4.66699 6.66699 -21 28.334 -49 65.001l65 109c27.333 -41.333 46 -77 56 -107
c14.667 -45.333 22 -105.666 22 -180.999v-240z" />
    <glyph glyph-name="afii62792" unicode="&#x635;" horiz-adv-x="2249" arabic-form="final" 
d="M2249 293l-1188 0.000976562c-20 -138.667 -68 -242.667 -144 -312c-94.667 -86 -239 -129 -433 -129c-133.333 0 -235.333 23.333 -306 70c-77.333 51.333 -116 130 -116 236c0 57.333 7 115.333 21 174s33 117.667 57 177c14.667 36 40 91.333 76 166l40 -18
c-46.667 -96 -77.5 -171.667 -92.5 -227s-22.5 -106 -22.5 -152c0 -82.667 29.5 -145.5 88.5 -188.5s143.167 -64.5 252.5 -64.5c128 0 242.333 22.333 343 67c125.333 55.333 188 132.666 188 231.999c0 66.667 -12.333 130 -37 190
c-19.333 47.333 -46.666 92.666 -81.999 135.999l83 205c33.333 -54.667 56 -103 68 -145c16.667 -59.333 25 -140.333 25 -243h18c79.333 0 153 12.667 221 38c58.667 22 120.334 56.667 185.001 104l177 122c54.667 34.667 103.667 59.334 147 74.001
c49.333 16.667 103.666 25 162.999 25c91.333 0 159.666 -26.333 205 -79c42 -48.667 63 -117 63 -205v-253zM2087 544.001c0 32.667 -20.5 58.166 -61.5 76.499s-88.833 27.5 -143.5 27.5c-48 0 -101.667 -10.667 -161 -32c-42 -15.333 -95.333 -39.666 -160 -72.999
l-145 -76h461c64 0 115 6.5 153 19.5s57 32.167 57 57.5z" />
    <glyph glyph-name="afii62790" unicode="&#x635;" horiz-adv-x="1733" arabic-form="initial" 
d="M1733 293l-1202 -0.000976562c-36 0 -70.333 6 -103 18c-24.667 9.33301 -53.667 24.333 -87 45c-28 -24 -56 -40.5 -84 -49.5s-72.667 -13.5 -134 -13.5h-193v174h193c54 0 92.667 4.66699 116 14c38.667 15.333 58 46 58 92c0 19.333 -1.16699 38.833 -3.5 58.5
s-5.83301 41.167 -10.5 64.5l41 60c23.333 -90.667 55.333 -160.667 96 -210c43.333 -52.667 94.333 -79 153 -79c56 0 121.667 12.667 197 38c81.333 27.333 151.333 62 210 104c95.333 68 153.666 108.667 174.999 122c54 34.667 103 59.334 147 74.001
c49.333 16.667 103.333 25 162 25c90.667 0 159 -26.333 205 -79c42.667 -48.667 64 -117 64 -205v-253zM1570 543.999c0 32.667 -20.332 58.167 -60.999 76.5s-88 27.5 -142 27.5c-66.667 0 -147.334 -22.333 -242.001 -67l-225 -114h461c72.667 0 125.667 6.33301 159 19
s50 32 50 58z" />
    <glyph glyph-name="afii62791" unicode="&#x635;" horiz-adv-x="1733" arabic-form="medial" 
d="M1733 293l-1202 -0.000976562c-36 0 -70.333 6 -103 18c-24.667 9.33301 -53.667 24.333 -87 45c-28 -24 -56 -40.5 -84 -49.5s-72.667 -13.5 -134 -13.5h-193v174h193c54 0 92.667 4.66699 116 14c38.667 15.333 58 46 58 92c0 19.333 -1.16699 38.833 -3.5 58.5
s-5.83301 41.167 -10.5 64.5l41 60c23.333 -90.667 55.333 -160.667 96 -210c43.333 -52.667 94.333 -79 153 -79c56 0 121.667 12.667 197 38c81.333 27.333 151.333 62 210 104c95.333 68 153.666 108.667 174.999 122c54 34.667 103 59.334 147 74.001
c49.333 16.667 103.333 25 162 25c90.667 0 159 -26.333 205 -79c42.667 -48.667 64 -117 64 -205v-253zM1570 543.999c0 32.667 -20.332 58.167 -60.999 76.5s-88 27.5 -142 27.5c-66.667 0 -147.334 -22.333 -242.001 -67l-225 -114h461c72.667 0 125.667 6.33301 159 19
s50 32 50 58z" />
    <glyph glyph-name="afii62795" unicode="&#x636;" horiz-adv-x="2249" arabic-form="final" 
d="M1583 1124l-76 -145l-162 84l74 146zM2249 293l-1188 0.000976562c-20 -138.667 -68 -242.667 -144 -312c-94.667 -86 -239 -129 -433 -129c-133.333 0 -235.333 23.333 -306 70c-77.333 51.333 -116 130 -116 236c0 57.333 7 115.333 21 174s33 117.667 57 177
c14.667 36 40 91.333 76 166l40 -18c-46.667 -96 -77.5 -171.667 -92.5 -227s-22.5 -106 -22.5 -152c0 -82.667 29.5 -145.5 88.5 -188.5s143.167 -64.5 252.5 -64.5c128 0 242.333 22.333 343 67c125.333 55.333 188 132.666 188 231.999c0 66.667 -12.333 130 -37 190
c-19.333 47.333 -46.666 92.666 -81.999 135.999l83 205c33.333 -54.667 56 -103 68 -145c16.667 -59.333 25 -140.333 25 -243h18c79.333 0 153 12.667 221 38c58.667 22 120.334 56.667 185.001 104l177 122c54.667 34.667 103.667 59.334 147 74.001
c49.333 16.667 103.666 25 162.999 25c91.333 0 159.666 -26.333 205 -79c42 -48.667 63 -117 63 -205v-253zM2087 544.001c0 32.667 -20.5 58.166 -61.5 76.499s-88.833 27.5 -143.5 27.5c-48 0 -101.667 -10.667 -161 -32c-42 -15.333 -95.333 -39.666 -160 -72.999
l-145 -76h461c64 0 115 6.5 153 19.5s57 32.167 57 57.5z" />
    <glyph glyph-name="afii62793" unicode="&#x636;" horiz-adv-x="1733" arabic-form="initial" 
d="M1097 1124l-76 -145l-162 84l74 146zM1733 293l-1202 -0.000976562c-36 0 -70.333 6 -103 18c-24.667 9.33301 -53.667 24.333 -87 45c-28 -24 -56 -40.5 -84 -49.5s-72.667 -13.5 -134 -13.5h-193v174h193c54 0 92.667 4.66699 116 14c38.667 15.333 58 46 58 92
c0 19.333 -1.16699 38.833 -3.5 58.5s-5.83301 41.167 -10.5 64.5l41 60c23.333 -90.667 55.333 -160.667 96 -210c43.333 -52.667 94.333 -79 153 -79c56 0 121.667 12.667 197 38c81.333 27.333 151.333 62 210 104c95.333 68 153.666 108.667 174.999 122
c54 34.667 103 59.334 147 74.001c49.333 16.667 103.333 25 162 25c90.667 0 159 -26.333 205 -79c42.667 -48.667 64 -117 64 -205v-253zM1570 543.999c0 32.667 -20.332 58.167 -60.999 76.5s-88 27.5 -142 27.5c-66.667 0 -147.334 -22.333 -242.001 -67l-225 -114h461
c72.667 0 125.667 6.33301 159 19s50 32 50 58z" />
    <glyph glyph-name="afii62794" unicode="&#x636;" horiz-adv-x="1733" arabic-form="medial" 
d="M1097 1124l-76 -145l-162 84l74 146zM1733 293l-1202 -0.000976562c-36 0 -70.333 6 -103 18c-24.667 9.33301 -53.667 24.333 -87 45c-28 -24 -56 -40.5 -84 -49.5s-72.667 -13.5 -134 -13.5h-193v174h193c54 0 92.667 4.66699 116 14c38.667 15.333 58 46 58 92
c0 19.333 -1.16699 38.833 -3.5 58.5s-5.83301 41.167 -10.5 64.5l41 60c23.333 -90.667 55.333 -160.667 96 -210c43.333 -52.667 94.333 -79 153 -79c56 0 121.667 12.667 197 38c81.333 27.333 151.333 62 210 104c95.333 68 153.666 108.667 174.999 122
c54 34.667 103 59.334 147 74.001c49.333 16.667 103.333 25 162 25c90.667 0 159 -26.333 205 -79c42.667 -48.667 64 -117 64 -205v-253zM1570 543.999c0 32.667 -20.332 58.167 -60.999 76.5s-88 27.5 -142 27.5c-66.667 0 -147.334 -22.333 -242.001 -67l-225 -114h461
c72.667 0 125.667 6.33301 159 19s50 32 50 58z" />
    <glyph glyph-name="afii62798" unicode="&#x637;" horiz-adv-x="1191" arabic-form="final" 
d="M1191 293h-1261v174l153 1c45.333 0 87.666 6 126.999 18c45.333 14 96.666 38.667 153.999 74c12 29.333 21.667 60.833 29 94.5s11 66.167 11 97.5c0 71.333 -6.66699 150 -20 236c-10 62.667 -25 136.334 -45 221.001c-10.667 44 -24.667 97.667 -42 161l-62 31
c4.66699 40 11.5 78.667 20.5 116s21.5 73.333 37.5 108c10.667 -31.333 35 -55.666 73 -72.999c31.333 -14 71.333 -23.333 120 -28c-6.66699 -68.667 -11.667 -112.334 -15 -131.001s-9.66602 -41.667 -18.999 -69c-4.66699 0.666992 -17 4 -37 10l-13 4
c23.333 -78 42.5 -158.167 57.5 -240.5s22.5 -151.5 22.5 -207.5c0 -47.333 -4.66699 -100 -14 -158c-3.33301 -20.667 -9.33301 -52.667 -18 -96c116.667 67.333 191.334 108.666 224.001 123.999c98.667 46.667 183.334 70 254.001 70c90 0 157.333 -26.333 202 -79
c40.667 -48 61 -116.333 61 -205v-253zM1033 544c0 34 -17.5 59.834 -52.5 77.501s-85.167 26.5 -150.5 26.5c-48.667 0 -104.667 -10.667 -168 -32c-52 -17.333 -107.333 -41.333 -166 -72c-43.333 -22.667 -88 -48.334 -134 -77.001h435c157.333 0 236 25.667 236 77z" />
    <glyph glyph-name="afii62796" unicode="&#x637;" horiz-adv-x="1191" arabic-form="initial" 
d="M1191 293h-1261v174l153 1c45.333 0 87.666 6 126.999 18c45.333 14 96.666 38.667 153.999 74c12 29.333 21.667 60.833 29 94.5s11 66.167 11 97.5c0 71.333 -6.66699 150 -20 236c-10 62.667 -25 136.334 -45 221.001c-10.667 44 -24.667 97.667 -42 161l-62 31
c4.66699 40 11.5 78.667 20.5 116s21.5 73.333 37.5 108c10.667 -31.333 35 -55.666 73 -72.999c31.333 -14 71.333 -23.333 120 -28c-6.66699 -68.667 -11.667 -112.334 -15 -131.001s-9.66602 -41.667 -18.999 -69c-4.66699 0.666992 -17 4 -37 10l-13 4
c23.333 -78 42.5 -158.167 57.5 -240.5s22.5 -151.5 22.5 -207.5c0 -47.333 -4.66699 -100 -14 -158c-3.33301 -20.667 -9.33301 -52.667 -18 -96c116.667 67.333 191.334 108.666 224.001 123.999c98.667 46.667 183.334 70 254.001 70c90 0 157.333 -26.333 202 -79
c40.667 -48 61 -116.333 61 -205v-253zM1033 544c0 34 -17.5 59.834 -52.5 77.501s-85.167 26.5 -150.5 26.5c-48.667 0 -104.667 -10.667 -168 -32c-52 -17.333 -107.333 -41.333 -166 -72c-43.333 -22.667 -88 -48.334 -134 -77.001h435c157.333 0 236 25.667 236 77z" />
    <glyph glyph-name="afii62797" unicode="&#x637;" horiz-adv-x="1191" arabic-form="medial" 
d="M1191 293h-1261v174l153 1c45.333 0 87.666 6 126.999 18c45.333 14 96.666 38.667 153.999 74c12 29.333 21.667 60.833 29 94.5s11 66.167 11 97.5c0 71.333 -6.66699 150 -20 236c-10 62.667 -25 136.334 -45 221.001c-10.667 44 -24.667 97.667 -42 161l-62 31
c4.66699 40 11.5 78.667 20.5 116s21.5 73.333 37.5 108c10.667 -31.333 35 -55.666 73 -72.999c31.333 -14 71.333 -23.333 120 -28c-6.66699 -68.667 -11.667 -112.334 -15 -131.001s-9.66602 -41.667 -18.999 -69c-4.66699 0.666992 -17 4 -37 10l-13 4
c23.333 -78 42.5 -158.167 57.5 -240.5s22.5 -151.5 22.5 -207.5c0 -47.333 -4.66699 -100 -14 -158c-3.33301 -20.667 -9.33301 -52.667 -18 -96c116.667 67.333 191.334 108.666 224.001 123.999c98.667 46.667 183.334 70 254.001 70c90 0 157.333 -26.333 202 -79
c40.667 -48 61 -116.333 61 -205v-253zM1033 544c0 34 -17.5 59.834 -52.5 77.501s-85.167 26.5 -150.5 26.5c-48.667 0 -104.667 -10.667 -168 -32c-52 -17.333 -107.333 -41.333 -166 -72c-43.333 -22.667 -88 -48.334 -134 -77.001h435c157.333 0 236 25.667 236 77z" />
    <glyph glyph-name="afii62801" unicode="&#x638;" horiz-adv-x="1191" arabic-form="final" 
d="M919 1224l-77 -145l-162 84l74 146zM1191 293h-1261v174l153 1c45.333 0 87.666 6 126.999 18c45.333 14 96.666 38.667 153.999 74c12 29.333 21.667 60.833 29 94.5s11 66.167 11 97.5c0 71.333 -6.66699 150 -20 236c-10 62.667 -25 136.334 -45 221.001
c-10.667 44 -24.667 97.667 -42 161l-62 31c4.66699 40 11.5 78.667 20.5 116s21.5 73.333 37.5 108c10.667 -31.333 35 -55.666 73 -72.999c31.333 -14 71.333 -23.333 120 -28c-6.66699 -68.667 -11.667 -112.334 -15 -131.001s-9.66602 -41.667 -18.999 -69
c-4.66699 0.666992 -17 4 -37 10l-13 4c23.333 -78 42.5 -158.167 57.5 -240.5s22.5 -151.5 22.5 -207.5c0 -47.333 -4.66699 -100 -14 -158c-3.33301 -20.667 -9.33301 -52.667 -18 -96c116.667 67.333 191.334 108.666 224.001 123.999
c98.667 46.667 183.334 70 254.001 70c90 0 157.333 -26.333 202 -79c40.667 -48 61 -116.333 61 -205v-253zM1033 544c0 34 -17.5 59.834 -52.5 77.501s-85.167 26.5 -150.5 26.5c-48.667 0 -104.667 -10.667 -168 -32c-52 -17.333 -107.333 -41.333 -166 -72
c-43.333 -22.667 -88 -48.334 -134 -77.001h435c157.333 0 236 25.667 236 77z" />
    <glyph glyph-name="afii62799" unicode="&#x638;" horiz-adv-x="1191" arabic-form="initial" 
d="M919 1224l-77 -145l-162 84l74 146zM1191 293h-1261v174l153 1c45.333 0 87.666 6 126.999 18c45.333 14 96.666 38.667 153.999 74c12 29.333 21.667 60.833 29 94.5s11 66.167 11 97.5c0 71.333 -6.66699 150 -20 236c-10 62.667 -25 136.334 -45 221.001
c-10.667 44 -24.667 97.667 -42 161l-62 31c4.66699 40 11.5 78.667 20.5 116s21.5 73.333 37.5 108c10.667 -31.333 35 -55.666 73 -72.999c31.333 -14 71.333 -23.333 120 -28c-6.66699 -68.667 -11.667 -112.334 -15 -131.001s-9.66602 -41.667 -18.999 -69
c-4.66699 0.666992 -17 4 -37 10l-13 4c23.333 -78 42.5 -158.167 57.5 -240.5s22.5 -151.5 22.5 -207.5c0 -47.333 -4.66699 -100 -14 -158c-3.33301 -20.667 -9.33301 -52.667 -18 -96c116.667 67.333 191.334 108.666 224.001 123.999
c98.667 46.667 183.334 70 254.001 70c90 0 157.333 -26.333 202 -79c40.667 -48 61 -116.333 61 -205v-253zM1033 544c0 34 -17.5 59.834 -52.5 77.501s-85.167 26.5 -150.5 26.5c-48.667 0 -104.667 -10.667 -168 -32c-52 -17.333 -107.333 -41.333 -166 -72
c-43.333 -22.667 -88 -48.334 -134 -77.001h435c157.333 0 236 25.667 236 77z" />
    <glyph glyph-name="afii62800" unicode="&#x638;" horiz-adv-x="1191" arabic-form="medial" 
d="M919 1224l-77 -145l-162 84l74 146zM1191 293h-1261v174l153 1c45.333 0 87.666 6 126.999 18c45.333 14 96.666 38.667 153.999 74c12 29.333 21.667 60.833 29 94.5s11 66.167 11 97.5c0 71.333 -6.66699 150 -20 236c-10 62.667 -25 136.334 -45 221.001
c-10.667 44 -24.667 97.667 -42 161l-62 31c4.66699 40 11.5 78.667 20.5 116s21.5 73.333 37.5 108c10.667 -31.333 35 -55.666 73 -72.999c31.333 -14 71.333 -23.333 120 -28c-6.66699 -68.667 -11.667 -112.334 -15 -131.001s-9.66602 -41.667 -18.999 -69
c-4.66699 0.666992 -17 4 -37 10l-13 4c23.333 -78 42.5 -158.167 57.5 -240.5s22.5 -151.5 22.5 -207.5c0 -47.333 -4.66699 -100 -14 -158c-3.33301 -20.667 -9.33301 -52.667 -18 -96c116.667 67.333 191.334 108.666 224.001 123.999
c98.667 46.667 183.334 70 254.001 70c90 0 157.333 -26.333 202 -79c40.667 -48 61 -116.333 61 -205v-253zM1033 544c0 34 -17.5 59.834 -52.5 77.501s-85.167 26.5 -150.5 26.5c-48.667 0 -104.667 -10.667 -168 -32c-52 -17.333 -107.333 -41.333 -166 -72
c-43.333 -22.667 -88 -48.334 -134 -77.001h435c157.333 0 236 25.667 236 77z" />
    <glyph glyph-name="afii62804" unicode="&#x639;" horiz-adv-x="922" arabic-form="final" 
d="M995 -274l-201.997 -160.002c-124.667 0 -222.667 5.66699 -294 17c-129.333 20.667 -230.666 60.667 -303.999 120c-94 76.667 -141 184 -141 322c0 91.333 17.667 176 53 254c28 62 70 124.333 126 187c26.667 30 75.667 78.333 147 145
c-6.66699 22.667 -16.167 39.334 -28.5 50.001s-25.5 16 -39.5 16c-17.333 0 -34.333 -11.667 -51 -35h-17c14 70 28.667 118.333 44 145c37.333 64 98.666 96 183.999 96c57.333 0 106.666 -14 147.999 -42c46 -31.333 69 -72 69 -122
c0 -32.667 -12.667 -60.334 -38 -83.001l-57 -46c37.333 -44.667 73.166 -76.334 107.499 -95.001s77.166 -28 128.499 -28h92v-174h-92c-102 0 -181.167 15.333 -237.5 46s-101.5 81.334 -135.5 152.001c-48.667 -31.333 -92.667 -63.666 -132 -96.999
c-53.333 -45.333 -95 -89.666 -125 -132.999c-37.333 -54 -56 -106 -56 -156c0 -112.667 56.333 -200 169 -262c86.667 -47.333 205.667 -79.333 357 -96c80 -8.66699 187 -13 321 -13z" />
    <glyph glyph-name="afii62802" unicode="&#x639;" horiz-adv-x="1077" arabic-form="initial" 
d="M963 605l-69.001 -182.003c-100.667 -36.667 -217.167 -67.5 -349.5 -92.5s-254.166 -37.5 -365.499 -37.5h-249v174h240c-19.333 31.333 -35 66.833 -47 106.5s-18 78.167 -18 115.5c0 78.667 32.833 144.667 98.5 198s150.167 80 253.5 80c82 0 149.667 -20 203 -60
c22.667 -16.667 61 -57.667 115 -123l-19 -17c-46 12.667 -87.333 22.167 -124 28.5s-74.667 9.5 -114 9.5c-92 0 -164.167 -10.167 -216.5 -30.5s-78.5 -47.166 -78.5 -80.499c0 -32.667 16.5 -69.167 49.5 -109.5s75.5 -76.166 127.5 -107.499
c109.333 16.667 199 32.834 269 48.501s168 42.167 294 79.5z" />
    <glyph glyph-name="afii62803" unicode="&#x639;" horiz-adv-x="807" arabic-form="medial" 
d="M807 293l-147 0.00195312c-43.333 0 -87.333 10.333 -132 31c-53.333 24.667 -92 59 -116 103c-44.667 -40 -95.667 -71 -153 -93c-70 -27.333 -149.667 -41 -239 -41h-90v174h90c56 0 108 6 156 18c54.667 14 108.334 36.333 161.001 67l-42 54
c-21.333 25.333 -45.333 38 -72 38c-12 0 -22.667 -2.16699 -32 -6.5s-19.666 -13.833 -30.999 -28.5h-21v59c0 73.333 19.333 123.666 58 150.999c35.333 24.667 96.666 37 183.999 37c75.333 0 136.666 -10 183.999 -30c62 -26 93 -66 93 -120
c0 -28.667 -12.333 -58.334 -37 -89.001c-18 -22.667 -51 -54 -99 -94c10.667 -16 31.167 -29.333 61.5 -40s55.833 -16 76.5 -16h147v-174z" />
    <glyph glyph-name="afii62807" unicode="&#x63a;" horiz-adv-x="922" arabic-form="final" 
d="M599 1224l-76 -145l-162 84l75 146zM995 -274l-201.997 -160.002c-124.667 0 -222.667 5.66699 -294 17c-129.333 20.667 -230.666 60.667 -303.999 120c-94 76.667 -141 184 -141 322c0 91.333 17.667 176 53 254c28 62 70 124.333 126 187
c26.667 30 75.667 78.333 147 145c-6.66699 22.667 -16.167 39.334 -28.5 50.001s-25.5 16 -39.5 16c-17.333 0 -34.333 -11.667 -51 -35h-17c14 70 28.667 118.333 44 145c37.333 64 98.666 96 183.999 96c57.333 0 106.666 -14 147.999 -42c46 -31.333 69 -72 69 -122
c0 -32.667 -12.667 -60.334 -38 -83.001l-57 -46c37.333 -44.667 73.166 -76.334 107.499 -95.001s77.166 -28 128.499 -28h92v-174h-92c-102 0 -181.167 15.333 -237.5 46s-101.5 81.334 -135.5 152.001c-48.667 -31.333 -92.667 -63.666 -132 -96.999
c-53.333 -45.333 -95 -89.666 -125 -132.999c-37.333 -54 -56 -106 -56 -156c0 -112.667 56.333 -200 169 -262c86.667 -47.333 205.667 -79.333 357 -96c80 -8.66699 187 -13 321 -13z" />
    <glyph glyph-name="afii62805" unicode="&#x63a;" horiz-adv-x="1077" arabic-form="initial" 
d="M543 1224l-75 -145l-163 84l76 146zM963 605l-69.001 -182.003c-100.667 -36.667 -217.167 -67.5 -349.5 -92.5s-254.166 -37.5 -365.499 -37.5h-249v174h240c-19.333 31.333 -35 66.833 -47 106.5s-18 78.167 -18 115.5c0 78.667 32.833 144.667 98.5 198
s150.167 80 253.5 80c82 0 149.667 -20 203 -60c22.667 -16.667 61 -57.667 115 -123l-19 -17c-46 12.667 -87.333 22.167 -124 28.5s-74.667 9.5 -114 9.5c-92 0 -164.167 -10.167 -216.5 -30.5s-78.5 -47.166 -78.5 -80.499c0 -32.667 16.5 -69.167 49.5 -109.5
s75.5 -76.166 127.5 -107.499c109.333 16.667 199 32.834 269 48.501s168 42.167 294 79.5z" />
    <glyph glyph-name="afii62806" unicode="&#x63a;" horiz-adv-x="807" arabic-form="medial" 
d="M466 1224l-76 -145l-162 84l75 146zM807 293l-147 0.00195312c-43.333 0 -87.333 10.333 -132 31c-53.333 24.667 -92 59 -116 103c-44.667 -40 -95.667 -71 -153 -93c-70 -27.333 -149.667 -41 -239 -41h-90v174h90c56 0 108 6 156 18
c54.667 14 108.334 36.333 161.001 67l-42 54c-21.333 25.333 -45.333 38 -72 38c-12 0 -22.667 -2.16699 -32 -6.5s-19.666 -13.833 -30.999 -28.5h-21v59c0 73.333 19.333 123.666 58 150.999c35.333 24.667 96.666 37 183.999 37c75.333 0 136.666 -10 183.999 -30
c62 -26 93 -66 93 -120c0 -28.667 -12.333 -58.334 -37 -89.001c-18 -22.667 -51 -54 -99 -94c10.667 -16 31.167 -29.333 61.5 -40s55.833 -16 76.5 -16h147v-174z" />
    <glyph glyph-name="afii62810" unicode="&#x641;" horiz-adv-x="1615" arabic-form="final" 
d="M1416 1309l-82 -148l-162 88l83 146zM1615 293l-917 0.000976562c-140.667 0 -254 8.66699 -340 26c-102.667 20.667 -180.334 55 -233.001 103c-57.333 52 -86 122.667 -86 212c0 59.333 17 128.666 51 207.999l55 121l40 -23c-28.667 -58 -47.667 -102.167 -57 -132.5
s-14 -57.833 -14 -82.5c0 -88 48 -153 144 -195s248.667 -63 458 -63h737c-78 21.333 -135.333 46 -172 74c-42 32 -63 71.667 -63 119c0 62 20.667 128.333 62 199c46.667 79.333 98.334 119 155.001 119c66 0 113.667 -39 143 -117c24.667 -65.333 37 -158.333 37 -279
v-289zM1511 596.001c0 58 -6.33398 102.669 -19.001 134.002c-15.333 37.333 -38.666 56 -69.999 56c-22.667 0 -39.5 -6.83301 -50.5 -20.5s-16.5 -32.834 -16.5 -57.501c0 -32.667 13.667 -57.334 41 -74.001c20 -12 58.333 -24.667 115 -38z" />
    <glyph glyph-name="afii62808" unicode="&#x641;" horiz-adv-x="548" arabic-form="initial" 
d="M415 1401l-77 -146l-161 86l74 146zM548 293h-617.998v174h533c0 59.333 -7 115 -21 167c-34.667 -11.333 -61.334 -19.333 -80.001 -24c-30.667 -8 -57.667 -12 -81 -12c-48.667 0 -88.334 12.333 -119.001 37c-35.333 28 -53 68.333 -53 121
c0 92.667 16.667 173.667 50 243c37.333 77.333 86 116 146 116c81.333 0 144 -63.667 188 -191c36.667 -105.333 55 -229 55 -371v-260zM385.002 813c-9.33301 24 -24.332 48.333 -44.999 73c-28 33.333 -54.667 50 -80 50c-18 0 -32.833 -7.5 -44.5 -22.5
s-17.5 -32.833 -17.5 -53.5c0 -53.333 29.333 -80 88 -80c15.333 0 31.666 3 48.999 9s34 14 50 24z" />
    <glyph glyph-name="afii62809" unicode="&#x641;" horiz-adv-x="538" arabic-form="medial" 
d="M451 1355l-88 -144l-140 96l83 140zM538 293l-607.999 -0.000976562v174h343c41.333 0 76.5 1.5 105.5 4.5s60.5 9.5 94.5 19.5c-114.667 16.667 -189 32.334 -223 47.001c-76.667 33.333 -115 90 -115 170c0 70 18.333 136 55 198c41.333 70 91.666 105 150.999 105
c68 0 119.667 -43.333 155 -130c28 -68.667 42 -149.667 42 -243v-345zM448.001 641.999c-15.333 53.333 -30 93 -44 119c-27.333 50 -60.333 75 -99 75c-18.667 0 -34.667 -7.33301 -48 -22s-20 -32 -20 -52c0 -50.667 26.333 -84.667 79 -102
c18.667 -6 62.667 -12 132 -18z" />
    <glyph glyph-name="afii62813" unicode="&#x642;" horiz-adv-x="1191" arabic-form="final" 
d="M1074 1314l-78 -144l-162 86l75 143zM844 1224l-76 -145l-162 84l74 145zM1191 242c0 -132 -63.3311 -232.669 -189.998 -302.002c-114 -62 -265.333 -93 -454 -93c-148.667 0 -263.667 26.667 -345 80c-88 58 -132 144 -132 258c0 78.667 12.667 161.334 38 248.001
c23.333 80 56.666 160 99.999 240l42 -18c-19.333 -46.667 -35.666 -88 -48.999 -124c-18 -49.333 -31 -91.666 -39 -126.999c-10 -44.667 -15 -88 -15 -130c0 -86.667 36.667 -150.667 110 -192c68 -38 168.333 -57 301 -57c142 0 266.333 23.333 373 70
c123.333 54 185 127 185 219c0 34 -1.16699 58.5 -3.5 73.5s-6.5 30.167 -12.5 45.5c-25.333 -12 -50.833 -21.5 -76.5 -28.5s-51.5 -10.5 -77.5 -10.5c-58.667 0 -106.334 13.333 -143.001 40c-44.667 32 -67 80.333 -67 145c0 75.333 19.333 147.333 58 216
c43.333 77.333 94.666 116 153.999 116c78 0 139.667 -53.333 185 -160c38.667 -90.667 58 -195.667 58 -315v-194zM1032 612.998c-17.333 41.333 -29.667 66.999 -37 76.999c-18.667 27.333 -42 41 -70 41c-32 0 -55.5 -7.66699 -70.5 -23s-22.5 -34.666 -22.5 -57.999
c0 -20.667 9.66699 -37 29 -49s41.333 -18 66 -18c17.333 0 33.5 2.5 48.5 7.5s33.833 12.5 56.5 22.5z" />
    <glyph glyph-name="afii62811" unicode="&#x642;" horiz-adv-x="548" arabic-form="initial" 
d="M516 1431l-78 -144l-162 86l75 143zM286 1341l-76 -145l-162 84l74 145zM548 293h-617.998v174h533c0 59.333 -7 115 -21 167c-34.667 -11.333 -61.334 -19.333 -80.001 -24c-30.667 -8 -57.667 -12 -81 -12c-48.667 0 -88.334 12.333 -119.001 37
c-35.333 28 -53 68.333 -53 121c0 92.667 16.667 173.667 50 243c37.333 77.333 86 116 146 116c81.333 0 144 -63.667 188 -191c36.667 -105.333 55 -229 55 -371v-260zM385.002 813c-9.33301 24 -24.332 48.333 -44.999 73c-28 33.333 -54.667 50 -80 50
c-18 0 -32.833 -7.5 -44.5 -22.5s-17.5 -32.833 -17.5 -53.5c0 -53.333 29.333 -80 88 -80c15.333 0 31.666 3 48.999 9s34 14 50 24z" />
    <glyph glyph-name="afii62812" unicode="&#x642;" horiz-adv-x="538" arabic-form="medial" 
d="M495 1407l-85 -134l-125 82l86 133zM266 1347l-79 -136l-123 81l83 134zM538 293l-607.999 -0.000976562v174h343c41.333 0 76.5 1.5 105.5 4.5s60.5 9.5 94.5 19.5c-114.667 16.667 -189 32.334 -223 47.001c-76.667 33.333 -115 90 -115 170c0 70 18.333 136 55 198
c41.333 70 91.666 105 150.999 105c68 0 119.667 -43.333 155 -130c28 -68.667 42 -149.667 42 -243v-345zM448.001 641.999c-15.333 53.333 -30 93 -44 119c-27.333 50 -60.333 75 -99 75c-18.667 0 -34.667 -7.33301 -48 -22s-20 -32 -20 -52
c0 -50.667 26.333 -84.667 79 -102c18.667 -6 62.667 -12 132 -18z" />
    <glyph glyph-name="afii62816" unicode="&#x643;" horiz-adv-x="1231" arabic-form="final" 
d="M865 904c0 -72.667 -24.335 -129 -73.002 -169s-117 -60 -205 -60c-40.667 0 -85.667 5.66699 -135 17c-30 6.66699 -74 19 -132 37l17 21c16 0 35.333 -1 58 -3c52.667 -4.66699 85.334 -7 98.001 -7c76.667 0 142.5 11.167 197.5 33.5s82.5 48.833 82.5 79.5
c0 14 -5.66699 26 -17 36s-24.666 15 -39.999 15c-17.333 0 -30.666 -0.333008 -39.999 -1l-70 -5c-16.667 0 -30.834 4.33301 -42.501 13s-17.5 23.334 -17.5 44.001c0 56 29.167 123 87.5 201s119.5 127.667 183.5 149l-19 -131c-46 -12.667 -81.333 -26.334 -106 -41.001
c-40 -23.333 -60 -51.333 -60 -84c0 -11.333 5.33301 -19.5 16 -24.5s23 -7.5 37 -7.5c12 0 22.667 0.666992 32 2l54 7c34.667 0 59 -9 73 -27s21 -49.667 21 -95zM1231 293l-738.001 -0.000976562c-159.333 0 -272.666 19 -339.999 57c-72 40.667 -108 110 -108 208
c0 58.667 15.667 125.334 47 200.001c8.66699 20.667 27 59 55 115l34 -20c-22.667 -52 -37.5 -92 -44.5 -120s-10.5 -54.667 -10.5 -80c0 -72.667 38.333 -123.667 115 -153c57.333 -22 141.333 -33 252 -33h637l-125 848l-52 25c0 46 4 89.167 12 129.5s20 79.5 36 117.5
l15 -11c0 -38.667 24 -67.667 72 -87l108 -40c0 -30.667 -3.83301 -65 -11.5 -103s-15.5 -67.667 -23.5 -89l-48 16l118 -784v-196z" />
    <glyph glyph-name="afii57410" unicode="&#x643;" horiz-adv-x="807" arabic-form="initial" 
d="M807 293h-876.999v174h761c-46.667 70.667 -100 132.167 -160 184.5s-141 108.833 -243 169.5l-33 -31l-118 90c-41.333 34.667 -62 61.667 -62 81c0 114.667 28 204.667 84 270c52 60 141.667 114 269 162l282 110v-173l-209 -70
c-83.333 -27.333 -150.666 -52.333 -201.999 -75c-65.333 -28.667 -98 -50.667 -98 -66s21.333 -39 64 -71l81 -60c101.333 -76.667 189.666 -157 264.999 -241c81.333 -90 146.666 -183.333 195.999 -280v-174z" />
    <glyph glyph-name="afii62815" unicode="&#x643;" horiz-adv-x="807" arabic-form="medial" 
d="M807 293h-876.999v174h761c-46.667 70.667 -100 132.167 -160 184.5s-141 108.833 -243 169.5l-33 -31l-118 90c-41.333 34.667 -62 61.667 -62 81c0 114.667 28 204.667 84 270c52 60 141.667 114 269 162l282 110v-173l-209 -70
c-83.333 -27.333 -150.666 -52.333 -201.999 -75c-65.333 -28.667 -98 -50.667 -98 -66s21.333 -39 64 -71l81 -60c101.333 -76.667 189.666 -157 264.999 -241c81.333 -90 146.666 -183.333 195.999 -280v-174z" />
    <glyph glyph-name="afii62819" unicode="&#x644;" horiz-adv-x="1037" arabic-form="final" 
d="M1037 417c0 -106.667 -24.999 -191.337 -74.999 -254.004c-44.667 -55.333 -110.334 -95 -197.001 -119c-73.333 -20 -166.333 -30 -279 -30c-128.667 0 -228.334 23.667 -299.001 71c-77.333 52 -116 129.667 -116 233c0 57.333 8.33301 117 25 179
c14 52.667 35.333 110.334 64 173.001c20.667 45.333 48.667 100 84 164l32 -19c-24.667 -44.667 -45.334 -84.667 -62.001 -120c-22 -47.333 -38.333 -89.666 -49 -126.999c-12.667 -45.333 -19 -89.333 -19 -132c0 -82 29.833 -144 89.5 -186s142.5 -63 248.5 -63
c112.667 0 217 19.333 313 58c105.333 42.667 158 93.667 158 153c0 64.667 -10.333 174.334 -31 329.001c-16 118.667 -35.667 251.334 -59 398.001l-33 194l-46 24c0 89.333 18.333 170.666 55 243.999h17c2.66699 -25.333 7.33398 -44.166 14.001 -56.499
s17.667 -21.5 33 -27.5c20.667 -8.66699 43.334 -19 68.001 -31l47 -23c0 -46.667 -1.66699 -80.667 -5 -102s-10 -51.333 -20 -90l-57 18c1.33301 -14.667 11 -81.667 29 -201c20.667 -139.333 36 -252.333 46 -339c16 -138.667 24 -244.667 24 -318z" />
    <glyph glyph-name="afii62817" unicode="&#x644;" horiz-adv-x="424" arabic-form="initial" 
d="M424 293h-494.001v174h393l-119 848l-52 25c0 46 4 89.167 12 129.5s20 79.5 36 117.5l15 -11c0 -38.667 21.667 -67.667 65 -87l101 -40c0 -33.333 -2.66699 -69 -8 -107s-11.666 -66.333 -18.999 -85l-48 16l118 -784v-196z" />
    <glyph glyph-name="afii62818" unicode="&#x644;" horiz-adv-x="424" arabic-form="medial" 
d="M424 293h-494.001v174h393l-119 848l-52 25c0 46 4 89.167 12 129.5s20 79.5 36 117.5l15 -11c0 -38.667 21.667 -67.667 65 -87l101 -40c0 -33.333 -2.66699 -69 -8 -107s-11.666 -66.333 -18.999 -85l-48 16l118 -784v-196z" />
    <glyph glyph-name="afii62822" unicode="&#x645;" horiz-adv-x="692" arabic-form="final" 
d="M692 293h-118.998c-110.667 0 -207.334 -10.333 -290.001 -31c-104.667 -26 -157 -63.333 -157 -112c0 -44 7.5 -91 22.5 -141l46 -152c15.667 -51.333 23.5 -98.333 23.5 -141c0 -25.333 -1.83301 -48.333 -5.5 -69s-10.167 -47.667 -19.5 -81l-51 166l-71 239
c-24 85.333 -36 136.666 -36 153.999c0 85.333 17.833 150.833 53.5 196.5s90.5 79.5 164.5 101.5c58.667 17.333 147 32 265 44c-42 42.667 -68 68 -78 76c-34 26.667 -68.333 40 -103 40c-22 0 -43 -6.66699 -63 -20c-16 -10.667 -35.333 -29 -58 -55l-46 29
c20 50 42.667 90 68 120c42 49.333 91.667 74 149 74c41.333 0 82.666 -15.333 123.999 -46c34 -25.333 68.667 -60.666 104 -105.999c17.333 -22 43 -59.333 77 -112v-174z" />
    <glyph glyph-name="afii62820" unicode="&#x645;" horiz-adv-x="807" arabic-form="initial" 
d="M807 293l-104.001 -0.00195312c-44.667 0 -95 10 -151 30c-64.667 23.333 -121.667 55.333 -171 96c-38.667 -47.333 -78.167 -80.166 -118.5 -98.499s-99.166 -27.5 -176.499 -27.5h-156v174h153c60.667 0 114.667 15.333 162 46c36.667 24 70 57.667 100 101
c40.667 58.667 90.667 109.667 150 153c53.333 38.667 102.333 63.334 147 74.001c46 -70 82.667 -133 110 -189c36.667 -76 55 -137.667 55 -185v-174zM691.999 489.998c-8.66699 38.667 -22.002 76.6689 -40.002 114.002c-15.333 31.333 -35.666 63.666 -60.999 96.999
c-32 -8 -59 -23 -81 -45c-14.667 -14 -32 -37.667 -52 -71c24 -26 57.833 -49.333 101.5 -70s84.834 -33.334 123.501 -38.001z" />
    <glyph glyph-name="afii62821" unicode="&#x645;" horiz-adv-x="807" arabic-form="medial" 
d="M807 293l-104.001 -0.00195312c-44.667 0 -95 10 -151 30c-64.667 23.333 -121.667 55.333 -171 96c-38.667 -47.333 -78.167 -80.166 -118.5 -98.499s-99.166 -27.5 -176.499 -27.5h-156v174h153c60.667 0 114.667 15.333 162 46c36.667 24 70 57.667 100 101
c40.667 58.667 90.667 109.667 150 153c53.333 38.667 102.333 63.334 147 74.001c46 -70 82.667 -133 110 -189c36.667 -76 55 -137.667 55 -185v-174zM691.999 489.998c-8.66699 38.667 -22.002 76.6689 -40.002 114.002c-15.333 31.333 -35.666 63.666 -60.999 96.999
c-32 -8 -59 -23 -81 -45c-14.667 -14 -32 -37.667 -52 -71c24 -26 57.833 -49.333 101.5 -70s84.834 -33.334 123.501 -38.001z" />
    <glyph glyph-name="afii62825" unicode="&#x646;" horiz-adv-x="1077" arabic-form="final" 
d="M705 1060l-75 -143l-156 86l72 139zM1077 293c0 -148.667 -43.666 -257.999 -130.999 -327.999c-94 -75.333 -245.667 -113 -455 -113c-133.333 0 -235.333 23.333 -306 70c-77.333 51.333 -116 130 -116 236c0 57.333 7 115.333 21 174s33 117.667 57 177
c14.667 36 40 91.333 76 166l40 -18c-46.667 -96 -77.5 -171.667 -92.5 -227s-22.5 -106 -22.5 -152c0 -82.667 29.5 -145.5 88.5 -188.5s143.167 -64.5 252.5 -64.5c126 0 237.667 22.333 335 67c120.667 55.333 181 132.666 181 231.999c0 68 -10 131.333 -30 190
c-17.333 52 -42 97.333 -74 136l83 205c35.333 -54 59.666 -109 72.999 -165s20 -130.333 20 -223v-174z" />
    <glyph glyph-name="afii62823" unicode="&#x646;" horiz-adv-x="500" arabic-form="initial" 
d="M420 1218l-76 -145l-162 84l74 145zM500 293h-570v174h497c0 78.667 -9.33301 138.667 -28 180c-12.667 28.667 -44 70 -94 124l78 163c48 -60.667 78 -108 90 -142c18 -51.333 27 -136.333 27 -255v-244z" />
    <glyph glyph-name="afii62824" unicode="&#x646;" horiz-adv-x="500" arabic-form="medial" 
d="M420 1218l-76 -145l-162 84l74 145zM500 293h-570v174h497c0 78.667 -9.33301 138.667 -28 180c-12.667 28.667 -44 70 -94 124l78 163c48 -60.667 78 -108 90 -142c18 -51.333 27 -136.333 27 -255v-244z" />
    <glyph glyph-name="afii62829" unicode="&#x648;" horiz-adv-x="885" arabic-form="final" 
d="M885 353c0 -110 -40.667 -219.335 -122 -328.002c-90.667 -121.333 -195.334 -182 -314.001 -182c-44 0 -89.333 5 -136 15c-34 7.33301 -78.333 20 -133 38l-130 45l17 35l117.5 -27.5c41 -9.66699 77.833 -14.5 110.5 -14.5c81.333 0 158.333 20.667 231 62
c56.667 32.667 113.334 80 170.001 142c28.667 31.333 69.334 82.333 122.001 153c-90 0 -157.333 14.333 -202 43c-50.667 32.667 -76 86.334 -76 161.001c0 68.667 16 132.334 48 191.001c37.333 68 84.666 102 141.999 102c58 0 99.667 -33.667 125 -101
c20 -52.667 30 -126 30 -220v-114zM822 461.998c-14.667 64 -32.332 108.333 -52.999 133c-18 21.333 -40 32 -66 32c-18.667 0 -34.834 -6.16699 -48.501 -18.5s-20.5 -27.833 -20.5 -46.5c0 -32.667 14.667 -57.5 44 -74.5s77.333 -25.5 144 -25.5z" />
    <glyph glyph-name="afii62830" unicode="&#x649;" horiz-adv-x="1205" arabic-form="final" 
d="M1205 293l-174.998 -0.000976562c-102.667 0 -179.834 -2.66699 -231.501 -8s-77.5 -16 -77.5 -32c0 -22 31 -33 93 -33c27.333 0 49 -0.666992 65 -2s51 -5 105 -11c32 -4 54 -9 66 -15c19.333 -10 29 -27.333 29 -52c0 -124.667 -41 -215.334 -123 -272.001
c-89.333 -62 -237 -93 -443 -93c-143.333 0 -257.333 24.333 -342 73c-90 52 -135 126 -135 222c0 77.333 21.333 159.333 64 246c15.333 31.333 55.666 98.333 120.999 201l40 -20l-75 -129c-38 -73.333 -57 -133.333 -57 -180c0 -82 42.667 -144.333 128 -187
c81.333 -40.667 193 -61 335 -61c95.333 0 179.333 7.33301 252 22c89.333 18 134 42.667 134 74c0 11.333 -5 19.833 -15 25.5s-26.667 8.5 -50 8.5c-18 2 -46.167 4.16699 -84.5 6.5s-63.5 3.5 -75.5 3.5c-42 0 -72 5.5 -90 16.5s-27 27.5 -27 49.5
c0 82.667 24.333 150.334 73 203.001c40 42.667 93.667 74.334 161 95.001c50.667 15.333 104 23 160 23h175v-174z" />
    </font>
</defs>
</svg>
