<?xml version="1.0" standalone="no"?>
<!DOCTYPE svg PUBLIC "-//W3C//DTD SVG 1.1//EN" "http://www.w3.org/Graphics/SVG/1.1/DTD/svg11.dtd" >
<svg xmlns="http://www.w3.org/2000/svg" xmlns:xlink="http://www.w3.org/1999/xlink" version="1.1">
<metadata>
Created by FontForge 20170731 at Wed Apr 19 17:11:05 2000
 By Aleksey,,,
Typeface and data (c) 1995-1999 Microsoft Corporation. All Rights Reserved.
</metadata>
<defs>
<font id="Tahoma-Bold" horiz-adv-x="0" >
  <font-face 
    font-family="Tahoma"
    font-weight="700"
    font-stretch="normal"
    units-per-em="2048"
    panose-1="2 11 8 4 3 5 4 4 2 4"
    ascent="1638"
    descent="-410"
    x-height="1123"
    cap-height="1489"
    bbox="-1429 -425 3328 2182"
    underline-thickness="201"
    underline-position="-444"
    unicode-range="U+0020-FFFC"
  />
<missing-glyph horiz-adv-x="2048" 
d="M256 0v1536h1536v-1536h-1536zM384 128h1280v1280h-1280v-1280z" />
    <glyph glyph-name="afii62881" unicode="&#x651;&#x64b;" horiz-adv-x="618" 
d="M362.5 1424.5q-32.5 17.5 -45.5 42.5q-9 -38 -49.5 -72.5t-99.5 -34.5q-76 0 -121 44t-45 124q0 27 1.5 57.5t2.5 43.5h96v-7q-1 -11 -3.5 -39t-2.5 -53q0 -36 18.5 -56t53.5 -20q43 0 68.5 38t25.5 114v70h94v-60q0 -57 22.5 -85.5t57.5 -28.5q41 0 63.5 27.5t22.5 84.5
q0 34 -2.5 58t-3.5 36v7h94q1 -10 3.5 -31t2.5 -72q0 -98 -49.5 -151.5t-130.5 -53.5q-41 0 -73.5 17.5zM598 2019l-573 -100v100l573 97v-97zM598 1819l-573 -101v101l573 96v-96z" />
    <glyph glyph-name="afii62882" unicode="&#x651;&#x64c;" horiz-adv-x="613" arabic-form="isolated" 
d="M359.5 1380.5q-32.5 17.5 -45.5 42.5q-9 -38 -49.5 -72.5t-99.5 -34.5q-76 0 -121 44t-45 124q0 27 1.5 57.5t2.5 43.5h96v-7q-1 -11 -3.5 -39t-2.5 -53q0 -36 18.5 -56t53.5 -20q43 0 68.5 38t25.5 114v70h94v-60q0 -57 22.5 -85.5t57.5 -28.5q41 0 63.5 27.5t22.5 84.5
q0 34 -2.5 58t-3.5 36v7h94q1 -10 3.5 -31t2.5 -72q0 -98 -49.5 -151.5t-130.5 -53.5q-41 0 -73.5 17.5zM352 1804q-51 16 -90 57.5t-39 98.5q0 69 46.5 113.5t125.5 44.5q68 0 119 -45.5t51 -116.5q0 -34 -18 -70.5t-35 -50.5l63 -12v-86l-126 28q-93 -53 -198 -81
t-202 -35l4 36q3 36 6 78q2 33 5.5 78t3.5 55q0 13 -5 22t-24 9q-18 0 -42 -1.5t-32 -2.5v96q6 0 45 3t64 3q32 0 55 -18.5t23 -50.5q0 -46 -7 -128l-8 -83q42 6 99 18.5t116 40.5zM428 1860q21 18 34 40.5t13 57.5q0 29 -23.5 47t-52.5 18q-35 0 -58.5 -16.5t-23.5 -48.5
q0 -34 28.5 -59t82.5 -39z" />
    <glyph glyph-name="afii62883" unicode="&#x651;&#x64d;" horiz-adv-x="618" arabic-form="isolated" 
d="M362.5 1827.5q-32.5 17.5 -45.5 42.5q-9 -38 -49.5 -72.5t-99.5 -34.5q-76 0 -121 44t-45 124q0 27 1.5 57.5t2.5 43.5h96v-7q-1 -11 -3.5 -39t-2.5 -53q0 -36 18.5 -56t53.5 -20q43 0 68.5 38t25.5 114v70h94v-60q0 -57 22.5 -85.5t57.5 -28.5q41 0 63.5 27.5t22.5 84.5
q0 34 -2.5 58t-3.5 36v7h94q1 -10 3.5 -31t2.5 -72q0 -98 -49.5 -151.5t-130.5 -53.5q-41 0 -73.5 17.5zM598 1652l-573 -97v100l573 97v-100zM598 1450l-573 -97v100l573 97v-100z" />
    <glyph glyph-name="afii62884" unicode="&#x651;&#x64e;" horiz-adv-x="614" arabic-form="isolated" 
d="M360.5 1635.5q-32.5 17.5 -45.5 42.5q-9 -38 -49.5 -72.5t-99.5 -34.5q-76 0 -121 44t-45 124q0 27 1.5 57.5t2.5 43.5h96v-7q-1 -11 -3.5 -39t-2.5 -53q0 -36 18.5 -56t53.5 -20q43 0 68.5 38t25.5 114v70h94v-60q0 -57 22.5 -85.5t57.5 -28.5q41 0 63.5 27.5t22.5 84.5
q0 34 -2.5 58t-3.5 36v7h94q1 -10 3.5 -31t2.5 -72q0 -98 -49.5 -151.5t-130.5 -53.5q-41 0 -73.5 17.5zM594 2017l-574 -100v100l574 97v-97z" />
    <glyph glyph-name="afii62885" unicode="&#x651;&#x64f;" horiz-adv-x="614" arabic-form="isolated" 
d="M360.5 1370.5q-32.5 17.5 -45.5 42.5q-9 -38 -49.5 -72.5t-99.5 -34.5q-76 0 -121 44t-45 124q0 27 1.5 57.5t2.5 43.5h96v-7q-1 -11 -3.5 -39t-2.5 -53q0 -36 18.5 -56t53.5 -20q43 0 68.5 38t25.5 114v70h94v-60q0 -57 22.5 -85.5t57.5 -28.5q41 0 63.5 27.5t22.5 84.5
q0 34 -2.5 58t-3.5 36v7h94q1 -10 3.5 -31t2.5 -72q0 -98 -49.5 -151.5t-130.5 -53.5q-41 0 -73.5 17.5zM557 1737l-127 28q-91 -52 -180.5 -79t-188.5 -33v88q76 5 141.5 18.5t131.5 44.5q-51 16 -90 57t-39 99q0 69 46 113.5t126 44.5q68 0 119 -45.5t51 -116.5
q0 -34 -18.5 -70.5t-34.5 -50.5l63 -12v-86zM410 1860q20 17 33.5 40t13.5 58q0 29 -23.5 47t-52.5 18q-35 0 -58.5 -16.5t-23.5 -48.5q0 -34 28.5 -59t82.5 -39z" />
    <glyph glyph-name="afii62886" unicode="&#x651;&#x650;" horiz-adv-x="614" arabic-form="isolated" 
d="M360.5 1825.5q-32.5 17.5 -45.5 42.5q-9 -38 -49.5 -72.5t-99.5 -34.5q-76 0 -121 44t-45 124q0 27 1.5 57.5t2.5 43.5h96v-7q-1 -11 -3.5 -39t-2.5 -53q0 -36 18.5 -56t53.5 -20q43 0 68.5 38t25.5 114v70h94v-60q0 -57 22.5 -85.5t57.5 -28.5q41 0 63.5 27.5t22.5 84.5
q0 34 -2.5 58t-3.5 36v7h94q1 -10 3.5 -31t2.5 -72q0 -98 -49.5 -151.5t-130.5 -53.5q-41 0 -73.5 17.5zM602 1673l-573 -98v100l573 97v-99z" />
    <glyph glyph-name="afii64184" unicode="&#xfedf;&#xfee0;&#xfeea;" horiz-adv-x="2486" arabic-form="isolated" 
d="M795 645v240q-181 -9 -273 -62.5t-92 -144.5q0 -46 38 -77.5t95 -31.5q58 0 122 20t110 56zM1556 147q-35 -63 -121.5 -107t-205.5 -44q-160 0 -269 99t-145 288q-46 -52 -123.5 -85.5t-152.5 -33.5q-189 0 -302.5 115t-113.5 297q0 233 178 356.5t512 138.5l260 13v-586
q0 -117 41.5 -177.5t130.5 -60.5q91 0 131.5 57.5t40.5 180.5v956h279v-956q0 -123 41.5 -180.5t132.5 -57.5q97 0 136.5 57t39.5 181v956h278v-956q0 -292 -118.5 -445t-329.5 -153q-120 0 -203 45t-117 102zM1587.5 1763.5q-32.5 17.5 -45.5 42.5q-9 -38 -49.5 -72.5
t-99.5 -34.5q-76 0 -121 44t-45 124q0 27 1.5 57.5t2.5 43.5h96v-7q-1 -11 -3.5 -39t-2.5 -53q0 -36 18.5 -56t53.5 -20q43 0 68.5 38t25.5 114v70h94v-60q0 -57 22.5 -85.5t57.5 -28.5q41 0 63.5 27.5t22.5 84.5q0 34 -2.5 58t-3.5 36v7h94q1 -10 3.5 -31t2.5 -72
q0 -98 -49.5 -151.5t-130.5 -53.5q-41 0 -73.5 17.5z" />
    <glyph glyph-name="afii62834" unicode="&#xfedf;&#xfe82;" horiz-adv-x="1399" arabic-form="isolated" 
d="M1237 563q0 -148 -59.5 -257.5t-156.5 -179.5q-98 -71 -221 -105.5t-253 -34.5q-152 0 -255.5 10t-117.5 12v363h8q13 -2 104.5 -12.5t262.5 -10.5q13 0 23.5 1t13.5 1l-473 1129h305l428 -1082q41 19 76.5 64t35.5 114v979h279v-991zM526 1649q-19 -15 -57.5 -34.5
t-89.5 -19.5q-39 0 -115.5 31t-114.5 31q-33 0 -79 -25t-68 -39v101q17 14 62.5 35.5t84.5 21.5q35 0 113.5 -30.5t116.5 -30.5q43 0 88.5 23t58.5 34v-98z" />
    <glyph glyph-name="afii62835" unicode="&#xfee0;&#xfe82;" horiz-adv-x="1493" arabic-form="final" 
d="M1397 0q-106 0 -185 43.5t-139 126.5q-101 -94 -238.5 -139t-287.5 -45q-152 0 -255.5 10t-117.5 12v363h8q13 -2 104.5 -12.5t262.5 -10.5q13 0 23.5 1t13.5 1l-473 1129h305l428 -1082q41 19 76.5 64t35.5 114v979h279v-956q0 -62 17 -106.5t44 -73.5q29 -30 64.5 -44
t79.5 -14h94v-360h-139zM1399 0zM539 1649q-19 -15 -57.5 -34.5t-89.5 -19.5q-39 0 -115.5 31t-114.5 31q-33 0 -79 -25t-68 -39v101q17 14 62.5 35.5t84.5 21.5q35 0 113.5 -30.5t116.5 -30.5q43 0 88.5 23t58.5 34v-98z" />
    <glyph glyph-name="afii62836" unicode="&#xfedf;&#xfe84;" horiz-adv-x="1399" arabic-form="isolated" 
d="M1237 563q0 -148 -59.5 -257.5t-156.5 -179.5q-98 -71 -221 -105.5t-253 -34.5q-152 0 -255.5 10t-117.5 12v363h8q13 -2 104.5 -12.5t262.5 -10.5q13 0 23.5 1t13.5 1l-473 1129h305l428 -1082q41 19 76.5 64t35.5 114v979h279v-991zM428 1596h-336v94h74
q-24 13 -39.5 42t-15.5 60q0 64 47 112t127 48q53 0 78.5 -6t35.5 -10v-101h-6q-14 6 -47.5 14.5t-58.5 8.5q-44 0 -66 -18t-22 -48q0 -45 46 -73.5t109 -28.5h74v-94z" />
    <glyph glyph-name="afii62837" unicode="&#xfee0;&#xfe84;" horiz-adv-x="1493" arabic-form="final" 
d="M1397 0q-106 0 -185 43.5t-139 126.5q-101 -94 -238.5 -139t-287.5 -45q-152 0 -255.5 10t-117.5 12v363h8q13 -2 104.5 -12.5t262.5 -10.5q13 0 23.5 1t13.5 1l-473 1129h305l428 -1082q41 19 76.5 64t35.5 114v979h279v-956q0 -62 17 -106.5t44 -73.5q29 -30 64.5 -44
t79.5 -14h94v-360h-139zM1399 0zM369 1596h-336v94h74q-24 13 -39.5 42t-15.5 60q0 64 47 112t127 48q53 0 78.5 -6t35.5 -10v-101h-6q-14 6 -47.5 14.5t-58.5 8.5q-44 0 -66 -18t-22 -48q0 -45 46 -73.5t109 -28.5h74v-94z" />
    <glyph glyph-name="afii62838" unicode="&#xfedf;&#xfe88;" horiz-adv-x="1399" arabic-form="isolated" 
d="M1237 563q0 -148 -59.5 -257.5t-156.5 -179.5q-98 -71 -221 -105.5t-253 -34.5q-152 0 -255.5 10t-117.5 12v363h8q13 -2 104.5 -12.5t262.5 -10.5q13 0 23.5 1t13.5 1l-473 1129h305l428 -1082q41 19 76.5 64t35.5 114v979h279v-991zM705 -423h-336v94h74
q-24 13 -39.5 42t-15.5 60q0 64 47 112t127 48q53 0 78.5 -6t35.5 -10v-101h-6q-14 6 -47.5 14.5t-58.5 8.5q-44 0 -66 -18t-22 -48q0 -45 46 -73.5t109 -28.5h74v-94z" />
    <glyph glyph-name="afii62839" unicode="&#xfee0;&#xfe88;" horiz-adv-x="1493" arabic-form="final" 
d="M1397 0q-106 0 -185 43.5t-139 126.5q-101 -94 -238.5 -139t-287.5 -45q-152 0 -255.5 10t-117.5 12v363h8q13 -2 104.5 -12.5t262.5 -10.5q13 0 23.5 1t13.5 1l-473 1129h305l428 -1082q41 19 76.5 64t35.5 114v979h279v-956q0 -62 17 -106.5t44 -73.5q29 -30 64.5 -44
t79.5 -14h94v-360h-139zM1399 0zM731 -423h-336v94h74q-24 13 -39.5 42t-15.5 60q0 64 47 112t127 48q53 0 78.5 -6t35.5 -10v-101h-6q-14 6 -47.5 14.5t-58.5 8.5q-44 0 -66 -18t-22 -48q0 -45 46 -73.5t109 -28.5h74v-94z" />
    <glyph glyph-name="afii62840" unicode="&#xfedf;&#xfe8e;" horiz-adv-x="1399" arabic-form="isolated" 
d="M1237 563q0 -148 -59.5 -257.5t-156.5 -179.5q-98 -71 -221 -105.5t-253 -34.5q-152 0 -255.5 10t-117.5 12v363h8q13 -2 104.5 -12.5t262.5 -10.5q13 0 23.5 1t13.5 1l-473 1129h305l428 -1082q41 19 76.5 64t35.5 114v979h279v-991z" />
    <glyph glyph-name="afii62841" unicode="&#xfee0;&#xfe8e;" horiz-adv-x="1493" arabic-form="final" 
d="M1397 0q-106 0 -185 43.5t-139 126.5q-101 -94 -238.5 -139t-287.5 -45q-152 0 -255.5 10t-117.5 12v363h8q13 -2 104.5 -12.5t262.5 -10.5q13 0 23.5 1t13.5 1l-473 1129h305l428 -1082q41 19 76.5 64t35.5 114v979h279v-956q0 -62 17 -106.5t44 -73.5q29 -30 64.5 -44
t79.5 -14h94v-360h-139zM1399 0z" />
    <glyph glyph-name="afii52400" unicode="&#x622;" horiz-adv-x="627" arabic-form="isolated" 
d="M442 -4h-278v1556h278v-1556zM569 1731q-19 -15 -57.5 -34.5t-89.5 -19.5q-39 0 -115.5 31t-114.5 31q-33 0 -79 -25t-68 -39v101q17 14 62.5 35.5t84.5 21.5q35 0 113.5 -30.5t116.5 -30.5q43 0 88.5 23t58.5 34v-98z" />
    <glyph glyph-name="afii57411" unicode="&#x623;" horiz-adv-x="627" arabic-form="isolated" 
d="M442 -4h-278v1556h278v-1556zM465 1678h-336v94h74q-24 13 -39.5 42t-15.5 60q0 64 47 112t127 48q53 0 78.5 -6t35.5 -10v-101h-6q-14 6 -47.5 14.5t-58.5 8.5q-44 0 -66 -18t-22 -48q0 -45 46 -73.5t109 -28.5h74v-94z" />
    <glyph glyph-name="afii57412" unicode="&#x624;" horiz-adv-x="1083" arabic-form="isolated" 
d="M961 274q0 -204 -97.5 -351.5t-284.5 -228.5q-146 -65 -311.5 -91.5t-359.5 -26.5v344q85 0 218 10t221 30q104 23 188 63t120 104q-10 -2 -55.5 -8t-54.5 -6q-205 0 -328 117.5t-123 295.5q0 190 121.5 321.5t282.5 131.5q193 0 328 -194t135 -511zM666 449
q-19 97 -60.5 152.5t-95.5 55.5t-96.5 -36.5t-42.5 -88.5q0 -37 40 -67.5t121 -30.5q42 0 83 5.5t51 9.5zM633 1188h-336v94h74q-24 13 -39.5 42t-15.5 60q0 64 47 112t127 48q53 0 78.5 -6t35.5 -10v-101h-6q-14 6 -47.5 14.5t-58.5 8.5q-44 0 -66 -18t-22 -48
q0 -45 46 -73.5t109 -28.5h74v-94z" />
    <glyph glyph-name="afii57413" unicode="&#x625;" horiz-adv-x="627" arabic-form="isolated" 
d="M442 -4h-278v1556h278v-1556zM458 -423h-336v94h74q-24 13 -39.5 42t-15.5 60q0 64 47 112t127 48q53 0 78.5 -6t35.5 -10v-101h-6q-14 6 -47.5 14.5t-58.5 8.5q-44 0 -66 -18t-22 -48q0 -45 46 -73.5t109 -28.5h74v-94z" />
    <glyph glyph-name="afii57414" unicode="&#x626;" horiz-adv-x="1991" arabic-form="isolated" 
d="M1860 932h-9q-54 29 -176 53.5t-243 24.5q-102 0 -158.5 -24.5t-56.5 -65.5q0 -36 106 -68.5t222 -70.5q55 -19 116 -47t109 -63q45 -34 73.5 -79t28.5 -100q0 -234 -269 -366t-782 -132q-354 0 -527 127t-173 403q0 125 14.5 225.5t16.5 112.5h272v-18
q-4 -16 -15.5 -122t-11.5 -196q0 -82 85.5 -126t340.5 -44q381 0 575.5 30.5t194.5 102.5q0 35 -75.5 64.5t-223.5 69.5q-65 18 -136.5 49t-116.5 65q-45 33 -74 80t-29 105q0 171 138 288t358 117q128 0 241.5 -22t184.5 -50v-323zM756 1079h-336v94h74q-24 13 -39.5 42
t-15.5 60q0 64 47 112t127 48q53 0 78.5 -6t35.5 -10v-101h-6q-14 6 -47.5 14.5t-58.5 8.5q-44 0 -66 -18t-22 -48q0 -45 46 -73.5t109 -28.5h74v-94z" />
    <glyph glyph-name="afii57415" unicode="&#x627;" horiz-adv-x="627" arabic-form="isolated" 
d="M442 -4h-278v1556h278v-1556z" />
    <glyph glyph-name="afii57416" unicode="&#x628;" horiz-adv-x="1901" arabic-form="isolated" 
d="M1772 582q0 -281 -203 -435.5t-621 -154.5q-417 0 -618 157t-201 433q0 96 14 184t17 100h274v-10q-6 -30 -16 -114.5t-10 -147.5q0 -114 140.5 -177t401.5 -63q258 0 400.5 63t142.5 177q0 79 -11 156t-16 106v10h273q7 -29 20 -123t13 -161zM1024 -310h-148v148h148
v-148z" />
    <glyph glyph-name="afii57417" unicode="&#x629;" horiz-adv-x="1114" arabic-form="isolated" 
d="M1036 453q0 -210 -135.5 -341.5t-339.5 -131.5q-208 0 -340.5 130.5t-132.5 342.5q0 146 75.5 259t209.5 195l37 23l-134 127h322l180 -158q130 -112 194 -219.5t64 -226.5zM768 500q0 64 -43 124.5t-129 135.5l-16 14l-37 -22q-86 -52 -132 -112.5t-46 -139.5
q0 -63 54 -111.5t144 -48.5q88 0 146.5 50.5t58.5 109.5zM455 1296h-148v148h148v-148zM723 1296h-148v148h148v-148z" />
    <glyph glyph-name="afii57418" unicode="&#x62a;" horiz-adv-x="1901" arabic-form="isolated" 
d="M1772 582q0 -281 -203 -435.5t-621 -154.5q-417 0 -618 157t-201 433q0 96 14 184t17 100h274v-10q-6 -30 -16 -114.5t-10 -147.5q0 -114 140.5 -177t401.5 -63q258 0 400.5 63t142.5 177q0 79 -11 156t-16 106v10h273q7 -29 20 -123t13 -161zM882 1024h-148v148h148
v-148zM1150 1024h-148v148h148v-148z" />
    <glyph glyph-name="afii57419" unicode="&#x62b;" horiz-adv-x="1901" arabic-form="isolated" 
d="M1772 582q0 -281 -203 -435.5t-621 -154.5q-417 0 -618 157t-201 433q0 96 14 184t17 100h274v-10q-6 -30 -16 -114.5t-10 -147.5q0 -114 140.5 -177t401.5 -63q258 0 400.5 63t142.5 177q0 79 -11 156t-16 106v10h273q7 -29 20 -123t13 -161zM873 1024h-148v148h148
v-148zM1169 1024h-148v148h148v-148zM1021 1233h-148v148h148v-148z" />
    <glyph glyph-name="afii57420" unicode="&#x62c;" horiz-adv-x="1425" arabic-form="isolated" 
d="M1303 575h-132q-193 0 -339.5 -27t-244.5 -77q-96 -49 -143 -119t-47 -153q0 -117 99.5 -191t279.5 -74q130 0 255.5 25t219.5 70h9v-346q-94 -52 -220 -79.5t-262 -27.5q-276 0 -465.5 171.5t-189.5 449.5q0 113 52.5 212.5t148.5 178.5q95 78 231.5 128t304.5 64
q-61 19 -246 45.5t-344 26.5h-67v309h84q226 0 489.5 -85t468.5 -232h58v-269zM813 156h-148v148h148v-148z" />
    <glyph glyph-name="afii57421" unicode="&#x62d;" horiz-adv-x="1425" arabic-form="isolated" 
d="M1303 575h-132q-193 0 -339.5 -27t-244.5 -77q-96 -49 -143 -119t-47 -153q0 -117 99.5 -191t279.5 -74q130 0 255.5 25t219.5 70h9v-346q-94 -52 -220 -79.5t-262 -27.5q-276 0 -465.5 171.5t-189.5 449.5q0 113 52.5 212.5t148.5 178.5q95 78 231.5 128t304.5 64
q-61 19 -246 45.5t-344 26.5h-67v309h84q226 0 489.5 -85t468.5 -232h58v-269z" />
    <glyph glyph-name="afii57422" unicode="&#x62e;" horiz-adv-x="1425" arabic-form="isolated" 
d="M1303 575h-132q-193 0 -339.5 -27t-244.5 -77q-96 -49 -143 -119t-47 -153q0 -117 99.5 -191t279.5 -74q130 0 255.5 25t219.5 70h9v-346q-94 -52 -220 -79.5t-262 -27.5q-276 0 -465.5 171.5t-189.5 449.5q0 113 52.5 212.5t148.5 178.5q95 78 231.5 128t304.5 64
q-61 19 -246 45.5t-344 26.5h-67v309h84q226 0 489.5 -85t468.5 -232h58v-269zM998 1304h-148v148h148v-148z" />
    <glyph glyph-name="afii57423" unicode="&#x62f;" horiz-adv-x="1114" arabic-form="isolated" 
d="M768 822q106 -86 179 -186.5t73 -201.5q0 -207 -124.5 -320.5t-334.5 -113.5h-481v360h479q100 0 142 20.5t42 59.5q0 42 -32.5 84.5t-91.5 86.5q-59 45 -136.5 91t-183.5 105v323h8q96 -58 229.5 -142.5t231.5 -165.5z" />
    <glyph glyph-name="afii57424" unicode="&#x630;" horiz-adv-x="1114" arabic-form="isolated" 
d="M768 822q106 -86 179 -186.5t73 -201.5q0 -207 -124.5 -320.5t-334.5 -113.5h-481v360h479q100 0 142 20.5t42 59.5q0 42 -32.5 84.5t-91.5 86.5q-59 45 -136.5 91t-183.5 105v323h8q96 -58 229.5 -142.5t231.5 -165.5zM410 1372h-148v148h148v-148z" />
    <glyph glyph-name="afii57425" unicode="&#x631;" horiz-adv-x="946" arabic-form="isolated" 
d="M829 299q0 -184 -82 -330t-255 -246q-135 -77 -284.5 -112t-299.5 -35v363q93 0 213.5 17.5t206.5 52.5q99 41 158 103.5t59 153.5q0 109 -46 231.5t-83 180.5v12h293q21 -26 70.5 -146t49.5 -245z" />
    <glyph glyph-name="afii57426" unicode="&#x632;" horiz-adv-x="946" arabic-form="isolated" 
d="M829 299q0 -184 -82 -330t-255 -246q-135 -77 -284.5 -112t-299.5 -35v363q93 0 213.5 17.5t206.5 52.5q99 41 158 103.5t59 153.5q0 109 -46 231.5t-83 180.5v12h293q21 -26 70.5 -146t49.5 -245zM627 932h-148v148h148v-148z" />
    <glyph glyph-name="afii57427" unicode="&#x633;" horiz-adv-x="2871" arabic-form="isolated" 
d="M2748 598q0 -126 -29.5 -238.5t-85.5 -191.5q-59 -83 -141 -128.5t-194 -45.5q-109 0 -199.5 43.5t-128.5 103.5q-56 -75 -140 -111t-183 -36q-60 0 -114.5 27t-86.5 71q-35 -234 -220 -375t-452 -141q-139 0 -258 42.5t-207 124.5q-86 82 -136 207t-50 283
q0 148 16.5 252.5t20.5 130.5h284v-6q-4 -12 -23.5 -144t-19.5 -228q0 -134 106.5 -216.5t266.5 -82.5q177 0 286 102t109 270q0 139 -7.5 268.5t-8.5 139.5h305q0 -174 52.5 -269.5t136.5 -95.5q81 0 132.5 61.5t51.5 155.5v148h278v-150q0 -87 42 -148t118 -61
q87 0 144 57.5t57 180.5v293h278v-293z" />
    <glyph glyph-name="afii57428" unicode="&#x634;" horiz-adv-x="2871" arabic-form="isolated" 
d="M2748 598q0 -126 -29.5 -238.5t-85.5 -191.5q-59 -83 -141 -128.5t-194 -45.5q-109 0 -199.5 43.5t-128.5 103.5q-56 -75 -140 -111t-183 -36q-60 0 -114.5 27t-86.5 71q-35 -234 -220 -375t-452 -141q-139 0 -258 42.5t-207 124.5q-86 82 -136 207t-50 283
q0 148 16.5 252.5t20.5 130.5h284v-6q-4 -12 -23.5 -144t-19.5 -228q0 -134 106.5 -216.5t266.5 -82.5q177 0 286 102t109 270q0 139 -7.5 268.5t-8.5 139.5h305q0 -174 52.5 -269.5t136.5 -95.5q81 0 132.5 61.5t51.5 155.5v148h278v-150q0 -87 42 -148t118 -61
q87 0 144 57.5t57 180.5v293h278v-293zM1577 961h-148v148h148v-148zM1873 961h-148v148h148v-148zM1725 1170h-148v148h148v-148z" />
    <glyph glyph-name="afii57429" unicode="&#x635;" horiz-adv-x="2910" arabic-form="isolated" 
d="M2385 419q64 27 95 61.5t31 74.5q0 59 -46.5 105.5t-129.5 46.5q-98 0 -180.5 -34.5t-155.5 -88.5q-69 -52 -123.5 -113t-93.5 -111h190q140 0 245 16t168 43zM774 -424q-299 0 -475 177.5t-176 479.5q0 148 17.5 259.5t19.5 123.5h284v-12q-13 -53 -28 -160.5
t-15 -205.5q0 -132 105.5 -215.5t267.5 -83.5q80 0 152 24.5t123 68.5q59 51 89.5 121t30.5 158q0 141 -6 212t-10 93h285l6 -38q9 -60 12.5 -127t26.5 -78q284 403 470 527t380 124q195 0 324.5 -135t129.5 -350q0 -111 -54 -209.5t-150 -171.5q-98 -74 -229.5 -116
t-293.5 -42h-635q-70 -201 -240 -312.5t-411 -111.5z" />
    <glyph glyph-name="afii57430" unicode="&#x636;" horiz-adv-x="2910" arabic-form="isolated" 
d="M2385 419q64 27 95 61.5t31 74.5q0 59 -46.5 105.5t-129.5 46.5q-98 0 -180.5 -34.5t-155.5 -88.5q-69 -52 -123.5 -113t-93.5 -111h190q140 0 245 16t168 43zM774 -424q-299 0 -475 177.5t-176 479.5q0 148 17.5 259.5t19.5 123.5h284v-12q-13 -53 -28 -160.5
t-15 -205.5q0 -132 105.5 -215.5t267.5 -83.5q80 0 152 24.5t123 68.5q59 51 89.5 121t30.5 158q0 141 -6 212t-10 93h285l6 -38q9 -60 12.5 -127t26.5 -78q284 403 470 527t380 124q195 0 324.5 -135t129.5 -350q0 -111 -54 -209.5t-150 -171.5q-98 -74 -229.5 -116
t-293.5 -42h-635q-70 -201 -240 -312.5t-411 -111.5zM1756 1165h-148v148h148v-148z" />
    <glyph glyph-name="afii57431" unicode="&#x637;" horiz-adv-x="1663" arabic-form="isolated" 
d="M1264 553q0 66 -47 110t-130 44q-92 0 -175 -35.5t-155 -87.5q-63 -46 -119 -103.5t-106 -120.5h197q140 0 244.5 16.5t166.5 43.5q61 27 92.5 61t31.5 72zM1540 549q0 -113 -57 -217t-152 -174q-100 -75 -233 -116.5t-295 -41.5h-844v360h258l31 31v1165h276v-815
q107 122 256.5 202.5t304.5 80.5q198 0 326.5 -132t128.5 -343z" />
    <glyph glyph-name="afii57432" unicode="&#x638;" horiz-adv-x="1663" arabic-form="isolated" 
d="M1264 553q0 66 -47 110t-130 44q-92 0 -175 -35.5t-155 -87.5q-63 -46 -119 -103.5t-106 -120.5h197q140 0 244.5 16.5t166.5 43.5q61 27 92.5 61t31.5 72zM1540 549q0 -113 -57 -217t-152 -174q-100 -75 -233 -116.5t-295 -41.5h-844v360h258l31 31v1165h276v-815
q107 122 256.5 202.5t304.5 80.5q198 0 326.5 -132t128.5 -343zM930 1266h-148v148h148v-148z" />
    <glyph glyph-name="afii57433" unicode="&#x639;" horiz-adv-x="1427" arabic-form="isolated" 
d="M1247 -338q-81 -42 -194 -64t-269 -22q-309 0 -487 152.5t-178 412.5q0 137 48 221t136 150q-41 32 -79 109.5t-38 162.5q0 198 135 321.5t353 123.5q116 0 201 -8.5t100 -10.5v-313h-10q-37 3 -121 8.5t-162 5.5q-92 0 -154.5 -53.5t-62.5 -120.5q0 -42 17 -74t44 -49
l543 136v-267l-434 -108q-116 -28 -177 -86.5t-61 -145.5q0 -95 101.5 -152t283.5 -57q123 0 255.5 20.5t201.5 47.5h8v-340z" />
    <glyph glyph-name="afii57434" unicode="&#x63a;" horiz-adv-x="1427" arabic-form="isolated" 
d="M1247 -338q-81 -42 -194 -64t-269 -22q-309 0 -487 152.5t-178 412.5q0 137 48 221t136 150q-41 32 -79 109.5t-38 162.5q0 198 135 321.5t353 123.5q116 0 201 -8.5t100 -10.5v-313h-10q-37 3 -121 8.5t-162 5.5q-92 0 -154.5 -53.5t-62.5 -120.5q0 -42 17 -74t44 -49
l543 136v-267l-434 -108q-116 -28 -177 -86.5t-61 -145.5q0 -95 101.5 -152t283.5 -57q123 0 255.5 20.5t201.5 47.5h8v-340zM728 1468h-148v148h148v-148z" />
    <glyph glyph-name="afii57441" unicode="&#x641;" horiz-adv-x="2095" arabic-form="isolated" 
d="M1972 590q0 -158 -79 -271.5t-204 -183.5q-128 -73 -290.5 -108t-339.5 -35h-45q-448 0 -669.5 148.5t-221.5 441.5q0 83 13 182.5t14 107.5h274v-4q-3 -15 -14 -118.5t-11 -155.5q0 -114 150.5 -178t464.5 -64h22q174 0 287 11t182 32q66 20 103 47.5t59 67.5l-18.5 -2
t-43.5 -4q-24 -2 -52.5 -4t-51.5 -2q-185 0 -290 101t-105 263q0 178 108.5 300t253.5 122q204 0 354 -189.5t150 -504.5zM1677 772q-12 81 -72.5 146t-115.5 65q-48 0 -77.5 -35.5t-29.5 -81.5q0 -45 36 -75.5t95 -30.5q38 0 95.5 3.5t68.5 8.5zM1455 1526h-148v148h148
v-148z" />
    <glyph glyph-name="afii57442" unicode="&#x642;" horiz-adv-x="2023" arabic-form="isolated" 
d="M1901 455q0 -204 -76 -359.5t-206 -256.5q-131 -102 -302.5 -154t-374.5 -52q-420 0 -619.5 156.5t-199.5 434.5q0 110 16.5 196t17.5 94h267v-4q-3 -15 -14 -97t-11 -177q0 -114 142.5 -177t402.5 -63q141 0 262 34t206 89q90 57 136.5 122.5t46.5 133.5l-17.5 -2
t-44.5 -5q-23 -2 -52 -4t-52 -2q-188 0 -291.5 105.5t-103.5 259.5q0 167 104 294.5t259 127.5q91 0 181 -44.5t162 -132.5q75 -92 118 -222t43 -295zM1606 637q-13 81 -73.5 146t-115.5 65q-47 0 -76.5 -35.5t-29.5 -81.5q0 -45 35.5 -75.5t95.5 -30.5q38 0 96.5 4t67.5 8z
M1573 1391h-148v147h148v-147zM1305 1391h-148v147h148v-147z" />
    <glyph glyph-name="afii57443" unicode="&#x643;" horiz-adv-x="1749" arabic-form="isolated" 
d="M1465 162.5q-120 -162.5 -316 -162.5h-563q-99 0 -183 17.5t-144 59.5q-63 43 -99.5 120t-36.5 200q0 74 7 135t9 72h271v-8q-1 -5 -6 -53.5t-5 -81.5q0 -49 46.5 -75t140.5 -26h518q90 0 146.5 64t56.5 174v956h278v-956q0 -273 -120 -435.5zM1006 903
q0 -85 -101 -135.5t-262 -50.5v94q116 0 193 21t77 61q0 18 -19.5 30t-55.5 21l-76 19q-53 13 -85 45.5t-32 87.5q0 70 69.5 113.5t201.5 43.5v-90q-93 0 -138 -17.5t-45 -47.5q0 -18 20.5 -31t55.5 -22l84 -21q45 -11 79 -37.5t34 -83.5z" />
    <glyph glyph-name="afii57444" unicode="&#x644;" horiz-adv-x="1579" arabic-form="isolated" 
d="M1415 457q0 -94 -45.5 -179t-131.5 -145q-90 -63 -214 -98t-299 -35q-328 0 -465 119t-137 405q0 107 14 214t17 124h272v-8q-3 -22 -15 -132.5t-12 -195.5q0 -92 80 -129t248 -37q202 0 307 49.5t105 137.5v1007h278z" />
    <glyph glyph-name="afii57445" unicode="&#x645;" horiz-adv-x="1386" arabic-form="isolated" 
d="M1113 812q69 -66 110 -157.5t41 -212.5q0 -135 -43 -224.5t-106 -140.5q-63 -50 -133.5 -71.5t-133.5 -21.5q-83 0 -166.5 31t-149.5 89q-94 -233 -257 -358.5t-404 -169.5v358q109 21 194 53.5t144 95.5q61 64 100 165.5t58 269.5q23 207 121.5 317.5t283.5 110.5
q97 0 184 -34t157 -100zM983 467q0 72 -59.5 124t-137.5 52q-60 0 -100.5 -42.5t-40.5 -102.5q0 -62 55.5 -109t135.5 -47q66 0 106.5 34t40.5 91z" />
    <glyph glyph-name="afii57446" unicode="&#x646;" horiz-adv-x="1591" arabic-form="isolated" 
d="M1468 633q0 -165 -53.5 -286t-144.5 -197q-93 -77 -213 -113.5t-260 -36.5q-136 0 -260.5 37t-214.5 113q-93 78 -146 198t-53 285q0 104 17.5 242t19.5 153h282v-8q-5 -18 -24 -143t-19 -246q0 -125 123.5 -198t270.5 -73q149 0 274 72t125 199q0 122 -17 238.5
t-26 150.5v8h278q7 -36 24 -175t17 -220zM870 1202h-147v148h147v-148z" />
    <glyph glyph-name="afii57447" unicode="&#x647;" horiz-adv-x="1114" arabic-form="isolated" 
d="M1036 453q0 -210 -135.5 -341.5t-339.5 -131.5q-208 0 -340.5 130.5t-132.5 342.5q0 146 75.5 259t209.5 195l37 23l-134 127h322l180 -158q130 -112 194 -219.5t64 -226.5zM768 500q0 64 -43 124.5t-129 135.5l-16 14l-37 -22q-86 -52 -132 -112.5t-46 -139.5
q0 -63 54 -111.5t144 -48.5q88 0 146.5 50.5t58.5 109.5z" />
    <glyph glyph-name="afii57448" unicode="&#x648;" horiz-adv-x="1083" arabic-form="isolated" 
d="M961 274q0 -204 -97.5 -351.5t-284.5 -228.5q-146 -65 -311.5 -91.5t-359.5 -26.5v344q85 0 218 10t221 30q104 23 188 63t120 104q-10 -2 -55.5 -8t-54.5 -6q-205 0 -328 117.5t-123 295.5q0 190 121.5 321.5t282.5 131.5q193 0 328 -194t135 -511zM666 449
q-19 97 -60.5 152.5t-95.5 55.5t-96.5 -36.5t-42.5 -88.5q0 -37 40 -67.5t121 -30.5q42 0 83 5.5t51 9.5z" />
    <glyph glyph-name="afii57449" unicode="&#x649;" horiz-adv-x="1991" arabic-form="isolated" 
d="M1860 932h-9q-54 29 -176 53.5t-243 24.5q-102 0 -158.5 -24.5t-56.5 -65.5q0 -36 106 -68.5t222 -70.5q55 -19 116 -47t109 -63q45 -34 73.5 -79t28.5 -100q0 -234 -269 -366t-782 -132q-354 0 -527 127t-173 403q0 125 14.5 225.5t16.5 112.5h272v-18
q-4 -16 -15.5 -122t-11.5 -196q0 -82 85.5 -126t340.5 -44q381 0 575.5 30.5t194.5 102.5q0 35 -75.5 64.5t-223.5 69.5q-65 18 -136.5 49t-116.5 65q-45 33 -74 80t-29 105q0 171 138 288t358 117q128 0 241.5 -22t184.5 -50v-323z" />
    <glyph glyph-name="afii57450" unicode="&#x64a;" horiz-adv-x="1991" arabic-form="isolated" 
d="M1860 932h-9q-54 29 -176 53.5t-243 24.5q-102 0 -158.5 -24.5t-56.5 -65.5q0 -36 106 -68.5t222 -70.5q55 -19 116 -47t109 -63q45 -34 73.5 -79t28.5 -100q0 -234 -269 -366t-782 -132q-354 0 -527 127t-173 403q0 125 14.5 225.5t16.5 112.5h272v-18
q-4 -16 -15.5 -122t-11.5 -196q0 -82 85.5 -126t340.5 -44q381 0 575.5 30.5t194.5 102.5q0 35 -75.5 64.5t-223.5 69.5q-65 18 -136.5 49t-116.5 65q-45 33 -74 80t-29 105q0 171 138 288t358 117q128 0 241.5 -22t184.5 -50v-323zM791 -291h-148v148h148v-148zM1059 -291
h-148v148h148v-148z" />
    <glyph glyph-name="uni0679" unicode="&#x679;" horiz-adv-x="1901" arabic-form="isolated" 
d="M1772 582q0 -281 -203 -435.5t-621 -154.5q-417 0 -618 157t-201 433q0 96 14 184t17 100h274v-10q-6 -30 -16 -114.5t-10 -147.5q0 -114 140.5 -177t401.5 -63q258 0 400.5 63t142.5 177q0 79 -11 156t-16 106v10h273q7 -29 20 -123t13 -161zM1243 1181q0 -89 -88 -133
q-67 -33 -160 -33h-289v92h82q21 16 21 24v500h83v-397q104 113 190 113q71 0 116 -47t45 -119zM1159 1179q0 32 -22.5 54.5t-55.5 22.5q-72 0 -179 -149h48q209 0 209 72z" />
    <glyph glyph-name="afii57506" unicode="&#x67e;" horiz-adv-x="1901" arabic-form="isolated" 
d="M1772 582q0 -281 -203 -435.5t-621 -154.5q-417 0 -618 157t-201 433q0 96 14 184t17 100h274v-10q-6 -30 -16 -114.5t-10 -147.5q0 -114 140.5 -177t401.5 -63q258 0 400.5 63t142.5 177q0 79 -11 156t-16 106v10h273q7 -29 20 -123t13 -161zM874 -214h-148v148h148
v-148zM1170 -214h-148v148h148v-148zM1022 -423h-148v148h148v-148z" />
    <glyph glyph-name="afii57507" unicode="&#x686;" horiz-adv-x="1425" arabic-form="isolated" 
d="M1303 575h-132q-193 0 -339.5 -27t-244.5 -77q-96 -49 -143 -119t-47 -153q0 -117 99.5 -191t279.5 -74q130 0 255.5 25t219.5 70h9v-346q-94 -52 -220 -79.5t-262 -27.5q-276 0 -465.5 171.5t-189.5 449.5q0 113 52.5 212.5t148.5 178.5q95 78 231.5 128t304.5 64
q-61 19 -246 45.5t-344 26.5h-67v309h84q226 0 489.5 -85t468.5 -232h58v-269zM759 242h-148v148h148v-148zM1055 242h-148v148h148v-148zM907 33h-148v148h148v-148z" />
    <glyph glyph-name="uni0688" unicode="&#x688;" horiz-adv-x="1114" arabic-form="isolated" 
d="M768 822q106 -86 179 -186.5t73 -201.5q0 -207 -124.5 -320.5t-334.5 -113.5h-481v360h479q100 0 142 20.5t42 59.5q0 42 -32.5 84.5t-91.5 86.5q-59 45 -136.5 91t-183.5 105v323h8q96 -58 229.5 -142.5t231.5 -165.5zM761 1481q0 -89 -88 -133q-67 -33 -160 -33h-289
v92h82q21 16 21 24v500h83v-397q104 113 190 113q71 0 116 -47t45 -119zM677 1479q0 32 -22.5 54.5t-55.5 22.5q-72 0 -179 -149h48q209 0 209 72z" />
    <glyph glyph-name="uni0691" unicode="&#x691;" horiz-adv-x="946" arabic-form="isolated" 
d="M829 299q0 -184 -82 -330t-255 -246q-135 -77 -284.5 -112t-299.5 -35v363q93 0 213.5 17.5t206.5 52.5q99 41 158 103.5t59 153.5q0 109 -46 231.5t-83 180.5v12h293q21 -26 70.5 -146t49.5 -245zM801 1181q0 -89 -88 -133q-67 -33 -160 -33h-289v92h82q21 16 21 24v500
h83v-397q104 113 190 113q71 0 116 -47t45 -119zM717 1179q0 32 -22.5 54.5t-55.5 22.5q-72 0 -179 -149h48q209 0 209 72z" />
    <glyph glyph-name="afii57508" unicode="&#x698;" horiz-adv-x="946" arabic-form="isolated" 
d="M829 299q0 -184 -82 -330t-255 -246q-135 -77 -284.5 -112t-299.5 -35v363q93 0 213.5 17.5t206.5 52.5q99 41 158 103.5t59 153.5q0 109 -46 231.5t-83 180.5v12h293q21 -26 70.5 -146t49.5 -245zM457 931h-148v148h148v-148zM753 931h-148v148h148v-148zM605 1140h-148
v148h148v-148z" />
    <glyph glyph-name="afii57505" unicode="&#x6a4;" horiz-adv-x="2095" arabic-form="isolated" 
d="M1972 590q0 -158 -79 -271.5t-204 -183.5q-128 -73 -290.5 -108t-339.5 -35h-45q-448 0 -669.5 148.5t-221.5 441.5q0 83 13 182.5t14 107.5h274v-4q-3 -15 -14 -118.5t-11 -155.5q0 -114 150.5 -178t464.5 -64h22q174 0 287 11t182 32q66 20 103 47.5t59 67.5l-18.5 -2
t-43.5 -4q-24 -2 -52.5 -4t-51.5 -2q-185 0 -290 101t-105 263q0 178 108.5 300t253.5 122q204 0 354 -189.5t150 -504.5zM1677 772q-12 81 -72.5 146t-115.5 65q-48 0 -77.5 -35.5t-29.5 -81.5q0 -45 36 -75.5t95 -30.5q38 0 95.5 3.5t68.5 8.5zM1343 1526h-148v148h148
v-148zM1639 1526h-148v148h148v-148zM1491 1735h-148v148h148v-148z" />
    <glyph glyph-name="afii57567" unicode="&#x6a9;" horiz-adv-x="2077" arabic-form="isolated" 
d="M1501 360q69 0 110.5 24.5t41.5 59.5q0 29 -32.5 63t-107.5 85l-282 190q-125 82 -167 140t-42 122q0 89 72 159t202 118l721 266v-299l-594 -194q-53 -17 -76.5 -34.5t-23.5 -31.5q0 -18 35.5 -46t87.5 -62l256 -168q106 -70 158.5 -149.5t52.5 -188.5
q0 -186 -118.5 -300t-301.5 -114h-535q-217 0 -375.5 40.5t-259.5 116.5q-100 76 -149 185t-49 248q0 97 15.5 181.5t21.5 102.5h266v-10q-7 -35 -17 -112.5t-10 -149.5q0 -114 134 -178t423 -64h543z" />
    <glyph glyph-name="afii57509" unicode="&#x6af;" horiz-adv-x="2077" arabic-form="isolated" 
d="M1501 360q69 0 110.5 24.5t41.5 59.5q0 29 -32.5 63t-107.5 85l-282 190q-125 82 -167 140t-42 122q0 89 72 159t202 118l721 266v-299l-594 -194q-53 -17 -76.5 -34.5t-23.5 -31.5q0 -18 35.5 -46t87.5 -62l256 -168q106 -70 158.5 -149.5t52.5 -188.5
q0 -186 -118.5 -300t-301.5 -114h-535q-217 0 -375.5 40.5t-259.5 116.5q-100 76 -149 185t-49 248q0 97 15.5 181.5t21.5 102.5h266v-10q-7 -35 -17 -112.5t-10 -149.5q0 -114 134 -178t423 -64h543zM2003 1681l-791 -290v100l791 291v-101z" />
    <glyph glyph-name="uni06ba" unicode="&#x6ba;" horiz-adv-x="1591" arabic-form="isolated" 
d="M1468 633q0 -165 -53.5 -286t-144.5 -197q-93 -77 -213 -113.5t-260 -36.5q-136 0 -260.5 37t-214.5 113q-93 78 -146 198t-53 285q0 104 17.5 242t19.5 153h282v-8q-5 -18 -24 -143t-19 -246q0 -125 123.5 -198t270.5 -73q149 0 274 72t125 199q0 122 -17 238.5
t-26 150.5v8h278q7 -36 24 -175t17 -220z" />
    <glyph glyph-name="afii57470" unicode="&#x647;" horiz-adv-x="1593" arabic-form="initial" 
d="M416 1360h237q270 0 543.5 -290.5t273.5 -606.5q0 -217 -125 -340t-344 -123h-1042v360h234q-23 47 -23 119q0 201 112.5 321t299.5 120q186 0 299.5 -120.5t113.5 -320.5q0 -61 -20 -119h117q48 0 75 27.5t27 73.5q0 244 -177.5 421t-361.5 177h-239v301zM584 360
q62 0 98.5 32.5t36.5 86.5q0 57 -38 98t-99 41q-63 0 -99.5 -39.5t-36.5 -99.5q0 -53 37 -86t101 -33z" />
    <glyph glyph-name="uni06c1" unicode="&#x6c1;" horiz-adv-x="1066" arabic-form="final" 
d="M1088 0q-251 0 -302 206q-20 80 -40 114q-33 55 -92 55q-153 0 -244 -551h-340v10q119 415 211 588q154 289 371 289t293 -242q21 -67 48 -88t95 -21v-360z" />
    <glyph glyph-name="afii57555" unicode="&#x6cc;" horiz-adv-x="1991" arabic-form="isolated" 
d="M1860 932h-9q-54 29 -176 53.5t-243 24.5q-102 0 -158.5 -24.5t-56.5 -65.5q0 -36 106 -68.5t222 -70.5q55 -19 116 -47t109 -63q45 -34 73.5 -79t28.5 -100q0 -234 -269 -366t-782 -132q-354 0 -527 127t-173 403q0 125 14.5 225.5t16.5 112.5h272v-18
q-4 -16 -15.5 -122t-11.5 -196q0 -82 85.5 -126t340.5 -44q381 0 575.5 30.5t194.5 102.5q0 35 -75.5 64.5t-223.5 69.5q-65 18 -136.5 49t-116.5 65q-45 33 -74 80t-29 105q0 171 138 288t358 117q128 0 241.5 -22t184.5 -50v-323z" />
    <glyph glyph-name="uni06d2" unicode="&#x6d2;" horiz-adv-x="1167" arabic-form="isolated" 
d="M1193 -420h-733q-198 0 -300 54q-141 73 -141 255q0 81 59 188q32 57 146 222q77 133 155 266q95 147 206 147q58 0 102 -51q27 -30 77 -121v-360q-84 163 -161 163q-40 0 -74.5 -64t-69.5 -129q-33 -47 -65 -94q-19 -30 -19 -65q0 -51 113 -51h705v-360z" />
    <glyph glyph-name="uni06d3" unicode="&#x6d3;" horiz-adv-x="1167" arabic-form="isolated" 
d="M1193 -420h-733q-198 0 -300 54q-141 73 -141 255q0 81 59 188q32 57 146 222q77 133 155 266q95 147 206 147q58 0 102 -51q27 -30 77 -121v-360q-84 163 -161 163q-40 0 -74.5 -64t-69.5 -129q-33 -47 -65 -94q-19 -30 -19 -65q0 -51 113 -51h705v-360zM704 1017h-336
v94h74q-24 13 -39.5 42t-15.5 60q0 64 47 112t127 48q53 0 78.5 -6t35.5 -10v-101h-6q-14 6 -47.5 14.5t-58.5 8.5q-44 0 -66 -18t-22 -48q0 -45 46 -73.5t109 -28.5h74v-94z" />
    <glyph glyph-name="afii62958" unicode="&#x67e;" horiz-adv-x="2107" arabic-form="final" 
d="M2148 0h-200q-78 0 -158 43.5t-117 106.5q-40 -64 -121.5 -107t-183.5 -43h-424q-405 0 -612 151.5t-207 438.5q0 96 16 183t21 101h266v-8q-6 -25 -16.5 -109t-10.5 -155q0 -113 142 -177.5t403 -64.5h261h116q91 0 153 38.5t62 115.5q0 84 -5 134.5t-7 62.5v10h270
q6 -24 14.5 -89.5t8.5 -125.5q0 -58 43 -102t104 -44h182v-360zM1901 0zM932 -214h-148v148h148v-148zM1228 -214h-148v148h148v-148zM1080 -423h-148v148h148v-148z" />
    <glyph glyph-name="afii62956" unicode="&#x67e;" horiz-adv-x="698" arabic-form="initial" 
d="M537 598q0 -275 -120.5 -436.5t-318.5 -161.5h-139v360h94q93 0 149 63t56 175v293h279v-293zM125 -214h-148v148h148v-148zM421 -214h-148v148h148v-148zM273 -423h-148v148h148v-148z" />
    <glyph glyph-name="afii52957" unicode="&#x67e;" horiz-adv-x="793" arabic-form="medial" 
d="M834 0h-140q-106 0 -186 45t-113 102q-42 -68 -118.5 -107.5t-178.5 -39.5h-139v360h94q89 0 146 61.5t57 176.5v123h279v-123q0 -107 54 -172.5t150 -65.5h95v-360zM698 0zM295 -214h-148v148h148v-148zM591 -214h-148v148h148v-148zM443 -423h-148v148h148v-148z" />
    <glyph glyph-name="unifb67" unicode="&#x679;" horiz-adv-x="2107" arabic-form="final" 
d="M2148 0h-200q-78 0 -158 43.5t-117 106.5q-40 -64 -121.5 -107t-183.5 -43h-424q-405 0 -612 151.5t-207 438.5q0 96 16 183t21 101h266v-8q-6 -25 -16.5 -109t-10.5 -155q0 -113 142 -177.5t403 -64.5h261h116q91 0 153 38.5t62 115.5q0 84 -5 134.5t-7 62.5v10h270
q6 -24 14.5 -89.5t8.5 -125.5q0 -58 43 -102t104 -44h182v-360zM1901 0zM1303 1181q0 -89 -88 -133q-67 -33 -160 -33h-289v92h82q21 16 21 24v500h83v-397q104 113 190 113q71 0 116 -47t45 -119zM1219 1179q0 32 -22.5 54.5t-55.5 22.5q-72 0 -179 -149h48q209 0 209 72z
" />
    <glyph glyph-name="unifb68" unicode="&#x679;" horiz-adv-x="698" arabic-form="initial" 
d="M537 598q0 -275 -120.5 -436.5t-318.5 -161.5h-139v360h94q93 0 149 63t56 175v293h279v-293zM581 1181q0 -89 -88 -133q-67 -33 -160 -33h-289v92h82q21 16 21 24v500h83v-397q104 113 190 113q71 0 116 -47t45 -119zM497 1179q0 32 -22.5 54.5t-55.5 22.5
q-72 0 -179 -149h48q209 0 209 72z" />
    <glyph glyph-name="unifb69" unicode="&#x679;" horiz-adv-x="793" arabic-form="medial" 
d="M834 0h-140q-106 0 -186 45t-113 102q-42 -68 -118.5 -107.5t-178.5 -39.5h-139v360h94q89 0 146 61.5t57 176.5v123h279v-123q0 -107 54 -172.5t150 -65.5h95v-360zM698 0zM641 1181q0 -89 -88 -133q-67 -33 -160 -33h-289v92h82q21 16 21 24v500h83v-397
q104 113 190 113q71 0 116 -47t45 -119zM557 1179q0 32 -22.5 54.5t-55.5 22.5q-72 0 -179 -149h48q209 0 209 72z" />
    <glyph glyph-name="afii57371" unicode="&#x6a4;" horiz-adv-x="2154" arabic-form="final" 
d="M2195 0h-305q-93 0 -175 25.5t-150 72.5q-74 -47 -159.5 -72.5t-170.5 -25.5h-291q-393 0 -605 147.5t-212 442.5q0 99 15 188.5t16 95.5h272v-8q-5 -22 -14.5 -105t-9.5 -159q0 -113 146 -177.5t392 -64.5h322q-50 38 -96 116t-46 151q0 158 124.5 269.5t310.5 111.5
q185 0 312.5 -111t127.5 -279q0 -78 -54 -157t-85 -101h335v-360zM1647 468q25 30 39 56.5t14 61.5q0 61 -44 99t-97 38q-57 0 -96.5 -39t-39.5 -98q0 -28 16 -59.5t39 -58.5q18 -22 45 -43t40 -24q17 5 41.5 25t42.5 42zM1470 1249h-148v148h148v-148zM1766 1249h-148v148
h148v-148zM1618 1458h-148v148h148v-148z" />
    <glyph glyph-name="afii57372" unicode="&#x6a4;" horiz-adv-x="1110" arabic-form="initial" 
d="M827 1116q74 -92 117 -222t43 -296q0 -140 -62.5 -253t-158.5 -188q-99 -77 -215 -117t-227 -40h-365v360h342q135 0 237 41t144 117l-59.5 -6t-106.5 -6q-93 0 -166.5 26.5t-126.5 78.5q-50 49 -76 115t-26 144q0 171 104.5 296.5t257.5 125.5q94 0 182 -43.5
t162 -132.5zM692 780q-12 81 -72.5 146t-115.5 65q-48 0 -77.5 -35.5t-29.5 -81.5q0 -45 36 -75.5t95 -30.5q38 0 95.5 3.5t68.5 8.5zM373 1534h-148v148h148v-148zM669 1534h-148v148h148v-148zM521 1743h-148v148h148v-148z" />
    <glyph glyph-name="afii57369" unicode="&#x6a4;" horiz-adv-x="1171" arabic-form="medial" 
d="M1212 0h-180q-71 0 -135.5 15.5t-121.5 39.5q-57 25 -102.5 51t-88.5 54q-45 -28 -85 -53t-105 -52t-119 -41t-138 -14h-178v360h104q83 0 154.5 13.5l71.5 13.5q-53 48 -84 110t-31 146q0 83 27.5 148.5t81.5 117.5q52 49 129.5 77t171.5 28q192 0 301.5 -108
t109.5 -281q0 -69 -33 -130.5t-83 -107.5l20 -4.5t51 -9.5q37 -5 72 -9t84 -4h106v-360zM719 612q0 45 -37.5 80t-95.5 35q-66 0 -100.5 -35.5t-34.5 -79.5q0 -38 47.5 -75t89.5 -54q52 24 91.5 59.5t39.5 69.5zM494 1249h-148v148h148v-148zM790 1249h-148v148h148v-148z
M642 1458h-148v148h148v-148z" />
    <glyph glyph-name="afii62961" unicode="&#x686;" horiz-adv-x="1618" arabic-form="final" 
d="M1458 575v-120q0 -47 25 -71t73 -24h103v-360h-115q-153 0 -233 77.5t-80 237.5v260h-60q-193 0 -339 -27t-243 -77q-90 -46 -139 -115t-49 -157q0 -117 97.5 -191t277.5 -74q105 0 219.5 16t212.5 52h9v-346q-108 -43 -212 -61.5t-227 -18.5q-137 0 -255.5 43
t-208.5 125q-89 81 -140 195.5t-51 257.5q0 113 52.5 212.5t148.5 178.5q95 78 231.5 128t304.5 64l-42.5 11t-120.5 25q-72 13 -189 24.5t-238 11.5h-67v309h59q251 0 515.5 -81t467.5 -236h260v-269h-47zM1303 844zM1425 0zM768 250h-148v148h148v-148zM1064 250h-148v148
h148v-148zM916 41h-148v148h148v-148z" />
    <glyph glyph-name="afii62959" unicode="&#x686;" horiz-adv-x="1538" arabic-form="initial" 
d="M1436 584l-455 -258q-69 -38 -148.5 -87t-202.5 -109q-114 -56 -213.5 -93t-193.5 -37h-264v360h272q174 0 313 44t353 159q-112 51 -270.5 84t-317.5 33h-203v309h213q174 0 366 -62t464 -222l287 151v-272zM963 -90h-148v148h148v-148zM1259 -90h-148v148h148v-148z
M1111 -299h-148v148h148v-148z" />
    <glyph glyph-name="afii62960" unicode="&#x686;" horiz-adv-x="1538" arabic-form="medial" 
d="M887 270q-171 -102 -352.5 -186t-311.5 -84h-264v360h272q197 0 343 53t323 150q-112 51 -270.5 84t-317.5 33h-203v309h213q181 0 372.5 -64t457.5 -220l287 151v-272l-351 -199q22 -13 45 -19t60 -6h389v-360h-346q-165 0 -251 63t-95 207zM633 -214h-148v148h148v-148
zM929 -214h-148v148h148v-148zM781 -423h-148v148h148v-148z" />
    <glyph glyph-name="unifb89" unicode="&#x688;" horiz-adv-x="1178" arabic-form="final" 
d="M1219 0h-232q-96 0 -160 34.5t-100 104.5q-45 -77 -116.5 -108t-164.5 -31h-344v360h355q75 0 123.5 26.5t48.5 59.5q0 9 -4.5 27.5t-10.5 36.5l-188 637h311l156 -539q14 -48 33.5 -101.5t35.5 -79.5q19 -32 44.5 -49.5t62.5 -17.5h150v-360zM1114 0zM861 1481
q0 -89 -88 -133q-67 -33 -160 -33h-289v92h82q21 16 21 24v500h83v-397q104 113 190 113q71 0 116 -47t45 -119zM777 1479q0 32 -22.5 54.5t-55.5 22.5q-72 0 -179 -149h48q209 0 209 72z" />
    <glyph glyph-name="afii62962" unicode="&#x698;" horiz-adv-x="1042" arabic-form="final" 
d="M1083 0h-139q-38 0 -88 12t-76 27q-56 -136 -160.5 -225.5t-228.5 -141.5q-126 -53 -252 -74.5t-231 -21.5v363q93 0 213.5 17.5t206.5 52.5q99 41 158 103.5t59 153.5q0 67 -18 138t-40 126q-25 61 -44.5 98.5t-26.5 49.5v12h293q21 -37 50.5 -101t39.5 -100
q17 -58 63 -93.5t125 -35.5h96v-360zM946 0zM829 299zM457 932h-148v148h148v-148zM753 932h-148v148h148v-148zM605 1141h-148v148h148v-148z" />
    <glyph glyph-name="unifb8d" unicode="&#x691;" horiz-adv-x="1042" arabic-form="final" 
d="M1083 0h-139q-38 0 -88 12t-76 27q-56 -136 -160.5 -225.5t-228.5 -141.5q-126 -53 -252 -74.5t-231 -21.5v363q93 0 213.5 17.5t206.5 52.5q99 41 158 103.5t59 153.5q0 67 -18 138t-40 126q-25 61 -44.5 98.5t-26.5 49.5v12h293q21 -37 50.5 -101t39.5 -100
q17 -58 63 -93.5t125 -35.5h96v-360zM946 0zM829 299zM841 1181q0 -89 -88 -133q-67 -33 -160 -33h-289v92h82q21 16 21 24v500h83v-397q104 113 190 113q71 0 116 -47t45 -119zM757 1179q0 32 -22.5 54.5t-55.5 22.5q-72 0 -179 -149h48q209 0 209 72z" />
    <glyph glyph-name="afii62964" unicode="&#x6a9;" horiz-adv-x="2163" arabic-form="final" 
d="M1501 360q69 0 110.5 24.5t41.5 59.5q0 29 -32.5 63t-107.5 85l-282 190q-125 82 -167 140t-42 122q0 89 72 159t202 118l721 266v-299l-594 -194q-53 -17 -76.5 -34.5t-23.5 -31.5q0 -18 35.5 -46t87.5 -62l256 -168q106 -70 158.5 -149.5t52.5 -188.5
q29 -27 62.5 -40.5t74.5 -13.5h154v-360h-197q-80 0 -144.5 22.5t-105.5 57.5q-56 -40 -118 -60t-146 -20h-535q-217 0 -375.5 40.5t-259.5 116.5q-100 76 -149 185t-49 248q0 97 15.5 181.5t21.5 102.5h266v-10q-7 -35 -17 -112.5t-10 -149.5q0 -114 134 -178t423 -64h543z
M2077 0z" />
    <glyph glyph-name="afii52305" unicode="&#x6a9;" horiz-adv-x="1139" arabic-form="initial" 
d="M1079 1288l-594 -194q-53 -17 -76.5 -34.5t-23.5 -31.5q0 -18 35.5 -46t87.5 -62l256 -168q106 -70 158.5 -149.5t52.5 -188.5q0 -186 -118.5 -300t-301.5 -114h-596v360h604q69 0 110.5 24.5t41.5 59.5q0 29 -32.5 63t-107.5 85l-282 190q-125 82 -167 139t-42 123
q0 83 71 156t203 121l721 266v-299z" />
    <glyph glyph-name="afii52306" unicode="&#x6a9;" horiz-adv-x="1225" arabic-form="medial" 
d="M1266 0h-197q-77 0 -142 22t-108 58q-56 -40 -118 -60t-146 -20h-596v360h604q69 0 110.5 24.5t41.5 59.5q0 29 -32.5 63t-107.5 85l-282 190q-125 82 -167 139t-42 123q0 83 71 156t203 121l721 266v-299l-594 -194q-53 -17 -76.5 -34.5t-23.5 -31.5q0 -18 35.5 -46
t87.5 -62l256 -168q106 -70 158.5 -149.5t52.5 -188.5q29 -27 62.5 -40.5t74.5 -13.5h154v-360zM1139 0z" />
    <glyph glyph-name="afii62967" unicode="&#x6af;" horiz-adv-x="2163" arabic-form="final" 
d="M1501 360q69 0 110.5 24.5t41.5 59.5q0 29 -32.5 63t-107.5 85l-282 190q-125 82 -167 140t-42 122q0 89 72 159t202 118l721 266v-299l-594 -194q-53 -17 -76.5 -34.5t-23.5 -31.5q0 -18 35.5 -46t87.5 -62l256 -168q106 -70 158.5 -149.5t52.5 -188.5
q29 -27 62.5 -40.5t74.5 -13.5h154v-360h-197q-80 0 -144.5 22.5t-105.5 57.5q-56 -40 -118 -60t-146 -20h-535q-217 0 -375.5 40.5t-259.5 116.5q-100 76 -149 185t-49 248q0 97 15.5 181.5t21.5 102.5h266v-10q-7 -35 -17 -112.5t-10 -149.5q0 -114 134 -178t423 -64h543z
M2003 1681l-791 -290v100l791 291v-101zM2077 0z" />
    <glyph glyph-name="afii62965" unicode="&#x6af;" horiz-adv-x="1139" arabic-form="initial" 
d="M1079 1288l-594 -194q-53 -17 -76.5 -34.5t-23.5 -31.5q0 -18 35.5 -46t87.5 -62l256 -168q106 -70 158.5 -149.5t52.5 -188.5q0 -186 -118.5 -300t-301.5 -114h-596v360h604q69 0 110.5 24.5t41.5 59.5q0 29 -32.5 63t-107.5 85l-282 190q-125 82 -167 139t-42 123
q0 83 71 156t203 121l721 266v-299zM1065 1681l-791 -290v100l791 291v-101z" />
    <glyph glyph-name="afii62966" unicode="&#x6af;" horiz-adv-x="1225" arabic-form="medial" 
d="M1267 0h-197q-80 0 -144.5 22.5t-105.5 57.5q-56 -40 -118 -60t-146 -20h-597v360h605q69 0 110.5 24.5t41.5 59.5q0 29 -32.5 63.5t-107.5 84.5l-282 190q-124 83 -166.5 140.5t-42.5 121.5q0 89 72 159t202 118l721 266v-299l-594 -194q-50 -16 -75 -34t-25 -32
q0 -18 35.5 -46t87.5 -62l256 -168q106 -70 158.5 -149.5t52.5 -188.5q29 -27 62.5 -40.5t74.5 -13.5h154v-360zM1066 1681l-791 -290v100l791 291v-101zM1139 0z" />
    <glyph glyph-name="unifb9f" unicode="&#x6ba;" horiz-adv-x="1729" arabic-form="final" 
d="M1769 0h-227q-20 0 -41 2.5t-47 9.5q-44 -204 -220 -320t-437 -116q-145 0 -269 33.5t-214 108.5q-91 76 -141 196t-50 291q0 136 17 247t20 123h282v-8q-13 -50 -28 -163t-15 -201q0 -129 103 -196.5t291 -67.5q186 0 292.5 64.5t106.5 199.5q0 126 -10 226t-21 138v8
h309q0 -114 33 -164.5t84 -50.5h182v-360zM1591 0zM1468 253z" />
    <glyph glyph-name="Ufba4" unicode="&#x6c0;" horiz-adv-x="1114" arabic-form="isolated" 
d="M1036 453q0 -210 -135.5 -341.5t-339.5 -131.5q-208 0 -340.5 130.5t-132.5 342.5q0 146 75.5 259t209.5 195l37 23l-134 127h322l180 -158q130 -112 194 -219.5t64 -226.5zM768 500q0 64 -43 124.5t-129 135.5l-16 14l-37 -22q-86 -52 -132 -112.5t-46 -139.5
q0 -63 54 -111.5t144 -48.5q88 0 146.5 50.5t58.5 109.5zM449 1267h-336v94h74q-24 13 -39.5 42t-15.5 60q0 64 47 112t127 48q53 0 78.5 -6t35.5 -10v-101h-6q-14 6 -47.5 14.5t-58.5 8.5q-44 0 -66 -18t-22 -48q0 -45 46 -73.5t109 -28.5h74v-94z" />
    <glyph glyph-name="Ufba5" unicode="&#x6c0;" horiz-adv-x="1362" arabic-form="final" 
d="M1403 0h-137q-92 0 -162 32.5t-121 86.5t-83.5 121t-53.5 143q-59 -53 -149.5 -86t-168.5 -33q-189 0 -302 115t-113 297q0 114 51 203.5t147 153.5q95 62 230.5 96t302.5 42l260 13v-586q0 -114 58 -176t145 -62h96v-360zM825 645v240q-193 -17 -299 -64t-106 -143
q0 -46 38 -77.5t95 -31.5q77 0 155 25t117 51zM514 1317h-336v94h74q-24 13 -39.5 42t-15.5 60q0 64 47 112t127 48q53 0 78.5 -6t35.5 -10v-101h-6q-14 6 -47.5 14.5t-58.5 8.5q-44 0 -66 -18t-22 -48q0 -45 46 -73.5t109 -28.5h74v-94z" />
    <glyph glyph-name="unifba6" unicode="&#x6c1;" horiz-adv-x="1114" arabic-form="isolated" 
d="M1036 453q0 -210 -135.5 -341.5t-339.5 -131.5q-208 0 -340.5 130.5t-132.5 342.5q0 146 75.5 259t209.5 195l37 23l-134 127h322l180 -158q130 -112 194 -219.5t64 -226.5zM768 500q0 64 -43 124.5t-129 135.5l-16 14l-37 -22q-86 -52 -132 -112.5t-46 -139.5
q0 -63 54 -111.5t144 -48.5q88 0 146.5 50.5t58.5 109.5z" />
    <glyph glyph-name="unifba8" unicode="&#x6c1;" horiz-adv-x="698" arabic-form="initial" 
d="M537 598q0 -240 -97 -402q-118 -196 -342 -196h-139v360h94q101 0 155 70q50 64 50 168v293h279v-293zM302 -311h-175v175q0 136 175 136v-59q-112 0 -112 -77h112v-175z" />
    <glyph glyph-name="unifba9" unicode="&#x6c1;" horiz-adv-x="988" arabic-form="medial" 
d="M1010 0q-75 0 -163.5 94t-140.5 94q-77 0 -121 -72t-88 -276h-245q-12 84 -25 261q-7 -17 -23 -43q-38 -38 -49 -44q-27 -14 -95 -14h-83v360h75q78 0 123 117l92 240h251l-64 -201q-29 -105 -36 -216q-4 -60 10 -166q44 160 118 256q78 102 168 102q88 0 176 -66
t120 -66v-360z" />
    <glyph glyph-name="afii62827" unicode="&#x6be;" horiz-adv-x="1186" arabic-form="final" 
d="M1227 0h-51q-177 0 -328 -111t-254 -313h-397v447q-117 -23 -201 -23h-37v360h61q81 0 177 7v145q0 215 104.5 346t263.5 131q145 0 247.5 -104t102.5 -260q0 -151 -124.5 -292t-323.5 -222v-215q138 213 328 338.5t374 125.5h58v-360zM467 416q84 22 131 77t47 123
q0 93 -72 93q-50 0 -78 -50.5t-28 -138.5v-104z" />
    <glyph glyph-name="unifbaf" unicode="&#x6d2;" horiz-adv-x="932" arabic-form="final" 
d="M950 -423h-486q-451 0 -451 320q0 107 79.5 195t199.5 117q77 18 154 35q71 19 153 57q125 59 351 59v-360q-259 0 -313 -10q-71 -24 -209 -57q-58 -8 -77 -15q-42 -17 -42 -57q0 -56 133 -56h508v-228z" />
    <glyph glyph-name="unifbb1" unicode="&#x6d3;" horiz-adv-x="932" arabic-form="final" 
d="M950 -423h-486q-451 0 -451 320q0 107 79.5 195t199.5 117q77 18 154 35q71 19 153 57q125 59 351 59v-360q-259 0 -313 -10q-71 -24 -209 -57q-58 -8 -77 -15q-42 -17 -42 -57q0 -56 133 -56h508v-228zM704 617h-336v94h74q-24 13 -39.5 42t-15.5 60q0 64 47 112t127 48
q53 0 78.5 -6t35.5 -10v-101h-6q-14 6 -47.5 14.5t-58.5 8.5q-44 0 -66 -18t-22 -48q0 -45 46 -73.5t109 -28.5h74v-94z" />
    <glyph glyph-name="afii52364" unicode="&#x6cc;" horiz-adv-x="2247" arabic-form="final" 
d="M2288 0h-99q-53 0 -102 28t-95 72q-46 46 -91.5 106t-84.5 115q-42 60 -83.5 118t-83.5 103q-43 47 -85.5 74t-86.5 27q-52 0 -90.5 -33t-38.5 -63q0 -32 58.5 -75t111.5 -82q84 -61 127 -119t43 -115q0 -223 -227 -353.5t-638 -130.5q-364 0 -532 132.5t-168 402.5
q0 110 11.5 207.5t19.5 126.5h274v-11q-4 -22 -15.5 -112.5t-11.5 -208.5q0 -89 91 -132.5t333 -43.5q292 0 438 31.5t146 93.5q0 45 -55.5 87t-114.5 82q-65 44 -117.5 97.5t-52.5 124.5q0 144 119.5 255t288.5 111q68 0 124.5 -25t103.5 -62q54 -42 97 -93t80 -98
q40 -51 78 -101.5t74 -88.5q39 -41 74 -64t77 -23h103v-360z" />
    <glyph glyph-name="uniFBFE" unicode="&#x6cc;" horiz-adv-x="698" arabic-form="initial" 
d="M537 598q0 -275 -120.5 -436.5t-318.5 -161.5h-139v360h94q93 0 149 63t56 175v293h279v-293zM214 -293h-148v148h148v-148zM482 -293h-148v148h148v-148z" />
    <glyph glyph-name="afii62832" unicode="&#x6cc;" horiz-adv-x="793" arabic-form="medial" 
d="M834 0h-140q-106 0 -186 45t-113 102q-42 -68 -118.5 -107.5t-178.5 -39.5h-139v360h94q89 0 146 61.5t57 176.5v123h279v-123q0 -107 54 -172.5t150 -65.5h95v-360zM698 0zM263 -295h-148v148h148v-148zM531 -295h-148v148h148v-148z" />
    <glyph glyph-name="afii52399" unicode="&#x621;" horiz-adv-x="866" arabic-form="isolated" 
d="M760 147l-617 -190v262l99 33q-48 18 -96 85t-48 136q0 145 97.5 239.5t255.5 94.5q75 0 133 -7.5t100 -17.5v-256h-8q-32 7 -95 17t-116 10q-62 0 -95.5 -24.5t-33.5 -61.5q0 -51 50 -84t130 -43l244 70v-263z" />
    <glyph glyph-name="afii62753" unicode="&#x622;" horiz-adv-x="698" arabic-form="final" 
d="M739 0h-139q-202 0 -320 164.5t-118 433.5v956h278v-956q0 -62 17 -106.5t44 -73.5q28 -28 64 -43t80 -15h94v-360zM627 0zM569 1731q-19 -15 -57.5 -34.5t-89.5 -19.5q-39 0 -115.5 31t-114.5 31q-33 0 -79 -25t-68 -39v101q17 14 62.5 35.5t84.5 21.5q35 0 113.5 -30.5
t116.5 -30.5q43 0 88.5 23t58.5 34v-98z" />
    <glyph glyph-name="afii62754" unicode="&#x623;" horiz-adv-x="698" arabic-form="final" 
d="M739 0h-139q-202 0 -320 164.5t-118 433.5v956h278v-956q0 -62 17 -106.5t44 -73.5q28 -28 64 -43t80 -15h94v-360zM627 0zM455 1678h-336v94h74q-24 13 -39.5 42t-15.5 60q0 64 47 112t127 48q53 0 78.5 -6t35.5 -10v-101h-6q-14 6 -47.5 14.5t-58.5 8.5q-44 0 -66 -18
t-22 -48q0 -45 46 -73.5t109 -28.5h74v-94z" />
    <glyph glyph-name="afii62755" unicode="&#x624;" horiz-adv-x="1157" arabic-form="final" 
d="M694 383q-13 136 -63 215.5t-103 79.5q-54 0 -91.5 -43t-37.5 -103t88 -101t207 -48zM1198 0h-45q-55 0 -127 7t-88 9q-63 -136 -183 -223.5t-262 -134.5t-285.5 -64.5t-270.5 -17.5v344q186 0 322 23.5t215 50.5q91 31 123.5 50.5t39.5 23.5q-250 28 -382 154.5
t-132 303.5q0 186 118.5 319.5t284.5 133.5q186 0 314 -171t147 -441q17 -2 76.5 -4.5t85.5 -2.5h49v-360zM961 274zM1083 0zM705 1188h-336v94h74q-24 13 -39.5 42t-15.5 60q0 64 47 112t127 48q53 0 78.5 -6t35.5 -10v-101h-6q-14 6 -47.5 14.5t-58.5 8.5q-44 0 -66 -18
t-22 -48q0 -45 46 -73.5t109 -28.5h74v-94z" />
    <glyph glyph-name="afii62756" unicode="&#x625;" horiz-adv-x="698" arabic-form="final" 
d="M739 0h-139q-202 0 -320 164.5t-118 433.5v956h278v-956q0 -62 17 -106.5t44 -73.5q28 -28 64 -43t80 -15h94v-360zM627 0zM514 -424h-336v94h74q-24 13 -39.5 42t-15.5 60q0 64 47 112t127 48q53 0 78.5 -6t35.5 -10v-101h-6q-14 6 -47.5 14.5t-58.5 8.5q-44 0 -66 -18
t-22 -48q0 -45 46 -73.5t109 -28.5h74v-94z" />
    <glyph glyph-name="afii62759" unicode="&#x626;" horiz-adv-x="2247" arabic-form="final" 
d="M2288 0h-99q-53 0 -102 28t-95 72q-46 46 -91.5 106t-84.5 115q-42 60 -83.5 118t-83.5 103q-43 47 -85.5 74t-86.5 27q-52 0 -90.5 -33t-38.5 -63q0 -32 58.5 -75t111.5 -82q84 -61 127 -119t43 -115q0 -223 -227 -353.5t-638 -130.5q-364 0 -532 132.5t-168 402.5
q0 110 11.5 207.5t19.5 126.5h274v-11q-4 -22 -15.5 -112.5t-11.5 -208.5q0 -89 91 -132.5t333 -43.5q292 0 438 31.5t146 93.5q0 45 -55.5 87t-114.5 82q-65 44 -117.5 97.5t-52.5 124.5q0 144 119.5 255t288.5 111q68 0 124.5 -25t103.5 -62q54 -42 97 -93t80 -98
q40 -51 78 -101.5t74 -88.5q39 -41 74 -64t77 -23h103v-360zM866 709h-336v94h74q-24 13 -39.5 42t-15.5 60q0 64 47 112t127 48q53 0 78.5 -6t35.5 -10v-101h-6q-14 6 -47.5 14.5t-58.5 8.5q-44 0 -66 -18t-22 -48q0 -45 46 -73.5t109 -28.5h74v-94z" />
    <glyph glyph-name="afii62757" unicode="&#x626;" horiz-adv-x="698" arabic-form="initial" 
d="M537 598q0 -275 -120.5 -436.5t-318.5 -161.5h-139v360h94q93 0 149 63t56 175v293h279v-293zM500 1130h-336v94h74q-24 13 -39.5 42t-15.5 60q0 64 47 112t127 48q53 0 78.5 -6t35.5 -10v-101h-6q-14 6 -47.5 14.5t-58.5 8.5q-44 0 -66 -18t-22 -48q0 -45 46 -73.5
t109 -28.5h74v-94z" />
    <glyph glyph-name="afii62758" unicode="&#x626;" horiz-adv-x="793" arabic-form="medial" 
d="M834 0h-140q-106 0 -186 45t-113 102q-42 -68 -118.5 -107.5t-178.5 -39.5h-139v360h94q89 0 146 61.5t57 176.5v123h279v-123q0 -107 54 -172.5t150 -65.5h95v-360zM698 0zM557 963h-336v94h74q-24 13 -39.5 42t-15.5 60q0 64 47 112t127 48q53 0 78.5 -6t35.5 -10v-101
h-6q-14 6 -47.5 14.5t-58.5 8.5q-44 0 -66 -18t-22 -48q0 -45 46 -73.5t109 -28.5h74v-94z" />
    <glyph glyph-name="afii62760" unicode="&#x627;" horiz-adv-x="698" arabic-form="final" 
d="M739 0h-139q-202 0 -320 164.5t-118 433.5v956h278v-956q0 -62 17 -106.5t44 -73.5q28 -28 64 -43t80 -15h94v-360zM627 0z" />
    <glyph glyph-name="afii62763" unicode="&#x628;" horiz-adv-x="2107" arabic-form="final" 
d="M2148 0h-200q-78 0 -158 43.5t-117 106.5q-40 -64 -121.5 -107t-183.5 -43h-424q-405 0 -612 151.5t-207 438.5q0 96 16 183t21 101h266v-8q-6 -25 -16.5 -109t-10.5 -155q0 -113 142 -177.5t403 -64.5h261h116q91 0 153 38.5t62 115.5q0 84 -5 134.5t-7 62.5v10h270
q6 -24 14.5 -89.5t8.5 -125.5q0 -58 43 -102t104 -44h182v-360zM1901 0zM1145 -295h-148v148h148v-148z" />
    <glyph glyph-name="afii62761" unicode="&#x628;" horiz-adv-x="698" arabic-form="initial" 
d="M537 598q0 -275 -120.5 -436.5t-318.5 -161.5h-139v360h94q93 0 149 63t56 175v293h279v-293zM302 -295h-148v148h148v-148z" />
    <glyph glyph-name="afii62762" unicode="&#x628;" horiz-adv-x="793" arabic-form="medial" 
d="M834 0h-140q-106 0 -186 45t-113 102q-42 -68 -118.5 -107.5t-178.5 -39.5h-139v360h94q89 0 146 61.5t57 176.5v123h279v-123q0 -107 54 -172.5t150 -65.5h95v-360zM698 0zM400 -295h-148v148h148v-148z" />
    <glyph glyph-name="afii62764" unicode="&#x629;" horiz-adv-x="1362" arabic-form="final" 
d="M1403 0h-137q-92 0 -162 32.5t-121 86.5t-83.5 121t-53.5 143q-59 -53 -149.5 -86t-168.5 -33q-189 0 -302 115t-113 297q0 114 51 203.5t147 153.5q95 62 230.5 96t302.5 42l260 13v-586q0 -114 58 -176t145 -62h96v-360zM825 645v240q-193 -17 -299 -64t-106 -143
q0 -46 38 -77.5t95 -31.5q77 0 155 25t117 51zM539 1409h-148v148h148v-148zM807 1409h-148v148h148v-148z" />
    <glyph glyph-name="afii62767" unicode="&#x62a;" horiz-adv-x="2107" arabic-form="final" 
d="M2148 0h-200q-78 0 -158 43.5t-117 106.5q-40 -64 -121.5 -107t-183.5 -43h-424q-405 0 -612 151.5t-207 438.5q0 96 16 183t21 101h266v-8q-6 -25 -16.5 -109t-10.5 -155q0 -113 142 -177.5t403 -64.5h261h116q91 0 153 38.5t62 115.5q0 84 -5 134.5t-7 62.5v10h270
q6 -24 14.5 -89.5t8.5 -125.5q0 -58 43 -102t104 -44h182v-360zM1901 0zM969 1024h-148v148h148v-148zM1237 1024h-148v148h148v-148z" />
    <glyph glyph-name="afii62765" unicode="&#x62a;" horiz-adv-x="698" arabic-form="initial" 
d="M537 598q0 -275 -120.5 -436.5t-318.5 -161.5h-139v360h94q93 0 149 63t56 175v293h279v-293zM214 1135h-148v148h148v-148zM482 1135h-148v148h148v-148z" />
    <glyph glyph-name="afii62766" unicode="&#x62a;" horiz-adv-x="793" arabic-form="medial" 
d="M834 0h-140q-106 0 -186 45t-113 102q-42 -68 -118.5 -107.5t-178.5 -39.5h-139v360h94q89 0 146 61.5t57 176.5v123h279v-123q0 -107 54 -172.5t150 -65.5h95v-360zM698 0zM304 963h-148v148h148v-148zM572 963h-148v148h148v-148z" />
    <glyph glyph-name="afii62770" unicode="&#x62b;" horiz-adv-x="2107" arabic-form="final" 
d="M2148 0h-200q-78 0 -158 43.5t-117 106.5q-40 -64 -121.5 -107t-183.5 -43h-424q-405 0 -612 151.5t-207 438.5q0 96 16 183t21 101h266v-8q-6 -25 -16.5 -109t-10.5 -155q0 -113 142 -177.5t403 -64.5h261h116q91 0 153 38.5t62 115.5q0 84 -5 134.5t-7 62.5v10h270
q6 -24 14.5 -89.5t8.5 -125.5q0 -58 43 -102t104 -44h182v-360zM1901 0zM991 1024h-148v148h148v-148zM1287 1024h-148v148h148v-148zM1139 1233h-148v148h148v-148z" />
    <glyph glyph-name="afii62768" unicode="&#x62b;" horiz-adv-x="698" arabic-form="initial" 
d="M537 598q0 -275 -120.5 -436.5t-318.5 -161.5h-139v360h94q93 0 149 63t56 175v293h279v-293zM213 1135h-148v148h148v-148zM509 1135h-148v148h148v-148zM361 1344h-148v148h148v-148z" />
    <glyph glyph-name="afii62769" unicode="&#x62b;" horiz-adv-x="793" arabic-form="medial" 
d="M834 0h-140q-106 0 -186 45t-113 102q-42 -68 -118.5 -107.5t-178.5 -39.5h-139v360h94q89 0 146 61.5t57 176.5v123h279v-123q0 -107 54 -172.5t150 -65.5h95v-360zM698 0zM277 963h-148v148h148v-148zM573 963h-148v148h148v-148zM425 1172h-148v148h148v-148z" />
    <glyph glyph-name="afii62773" unicode="&#x62c;" horiz-adv-x="1618" arabic-form="final" 
d="M1458 575v-120q0 -47 25 -71t73 -24h103v-360h-115q-153 0 -233 77.5t-80 237.5v260h-60q-193 0 -339 -27t-243 -77q-90 -46 -139 -115t-49 -157q0 -117 97.5 -191t277.5 -74q105 0 219.5 16t212.5 52h9v-346q-108 -43 -212 -61.5t-227 -18.5q-137 0 -255.5 43
t-208.5 125q-89 81 -140 195.5t-51 257.5q0 113 52.5 212.5t148.5 178.5q95 78 231.5 128t304.5 64l-42.5 11t-120.5 25q-72 13 -189 24.5t-238 11.5h-67v309h59q251 0 515.5 -81t467.5 -236h260v-269h-47zM1303 844zM1425 0zM844 160h-148v148h148v-148z" />
    <glyph glyph-name="afii62771" unicode="&#x62c;" horiz-adv-x="1538" arabic-form="initial" 
d="M1436 584l-455 -258q-69 -38 -148.5 -87t-202.5 -109q-114 -56 -213.5 -93t-193.5 -37h-264v360h272q174 0 313 44t353 159q-112 51 -270.5 84t-317.5 33h-203v309h213q174 0 366 -62t464 -222l287 151v-272zM1262 -76h-148v148h148v-148z" />
    <glyph glyph-name="afii62772" unicode="&#x62c;" horiz-adv-x="1538" arabic-form="medial" 
d="M887 270q-171 -102 -352.5 -186t-311.5 -84h-264v360h272q197 0 343 53t323 150q-112 51 -270.5 84t-317.5 33h-203v309h213q181 0 372.5 -64t457.5 -220l287 151v-272l-351 -199q22 -13 45 -19t60 -6h389v-360h-346q-165 0 -251 63t-95 207zM738 -293h-148v148h148v-148
z" />
    <glyph glyph-name="afii62776" unicode="&#x62d;" horiz-adv-x="1618" arabic-form="final" 
d="M1458 575v-120q0 -47 25 -71t73 -24h103v-360h-115q-153 0 -233 77.5t-80 237.5v260h-60q-193 0 -339 -27t-243 -77q-90 -46 -139 -115t-49 -157q0 -117 97.5 -191t277.5 -74q105 0 219.5 16t212.5 52h9v-346q-108 -43 -212 -61.5t-227 -18.5q-137 0 -255.5 43
t-208.5 125q-89 81 -140 195.5t-51 257.5q0 113 52.5 212.5t148.5 178.5q95 78 231.5 128t304.5 64l-42.5 11t-120.5 25q-72 13 -189 24.5t-238 11.5h-67v309h59q251 0 515.5 -81t467.5 -236h260v-269h-47zM1303 844zM1425 0z" />
    <glyph glyph-name="afii62774" unicode="&#x62d;" horiz-adv-x="1538" arabic-form="initial" 
d="M1436 584l-455 -258q-69 -38 -148.5 -87t-202.5 -109q-114 -56 -213.5 -93t-193.5 -37h-264v360h272q174 0 313 44t353 159q-112 51 -270.5 84t-317.5 33h-203v309h213q174 0 366 -62t464 -222l287 151v-272z" />
    <glyph glyph-name="afii62775" unicode="&#x62d;" horiz-adv-x="1538" arabic-form="medial" 
d="M887 270q-171 -102 -352.5 -186t-311.5 -84h-264v360h272q197 0 343 53t323 150q-112 51 -270.5 84t-317.5 33h-203v309h213q181 0 372.5 -64t457.5 -220l287 151v-272l-351 -199q22 -13 45 -19t60 -6h389v-360h-346q-165 0 -251 63t-95 207z" />
    <glyph glyph-name="afii62779" unicode="&#x62e;" horiz-adv-x="1618" arabic-form="final" 
d="M1458 575v-120q0 -47 25 -71t73 -24h103v-360h-115q-153 0 -233 77.5t-80 237.5v260h-60q-193 0 -339 -27t-243 -77q-90 -46 -139 -115t-49 -157q0 -117 97.5 -191t277.5 -74q105 0 219.5 16t212.5 52h9v-346q-108 -43 -212 -61.5t-227 -18.5q-137 0 -255.5 43
t-208.5 125q-89 81 -140 195.5t-51 257.5q0 113 52.5 212.5t148.5 178.5q95 78 231.5 128t304.5 64l-42.5 11t-120.5 25q-72 13 -189 24.5t-238 11.5h-67v309h59q251 0 515.5 -81t467.5 -236h260v-269h-47zM1303 844zM1425 0zM1051 1305h-148v148h148v-148z" />
    <glyph glyph-name="afii62777" unicode="&#x62e;" horiz-adv-x="1538" arabic-form="initial" 
d="M1436 584l-455 -258q-69 -38 -148.5 -87t-202.5 -109q-114 -56 -213.5 -93t-193.5 -37h-264v360h272q174 0 313 44t353 159q-112 51 -270.5 84t-317.5 33h-203v309h213q174 0 366 -62t464 -222l287 151v-272zM947 1133h-148v148h148v-148z" />
    <glyph glyph-name="afii62778" unicode="&#x62e;" horiz-adv-x="1538" arabic-form="medial" 
d="M887 270q-171 -102 -352.5 -186t-311.5 -84h-264v360h272q197 0 343 53t323 150q-112 51 -270.5 84t-317.5 33h-203v309h213q181 0 372.5 -64t457.5 -220l287 151v-272l-351 -199q22 -13 45 -19t60 -6h389v-360h-346q-165 0 -251 63t-95 207zM926 1231h-148v148h148v-148
z" />
    <glyph glyph-name="afii62780" unicode="&#x62f;" horiz-adv-x="1178" arabic-form="final" 
d="M1219 0h-232q-96 0 -160 34.5t-100 104.5q-45 -77 -116.5 -108t-164.5 -31h-344v360h355q75 0 123.5 26.5t48.5 59.5q0 9 -4.5 27.5t-10.5 36.5l-188 637h311l156 -539q14 -48 33.5 -101.5t35.5 -79.5q19 -32 44.5 -49.5t62.5 -17.5h150v-360zM1114 0z" />
    <glyph glyph-name="afii62781" unicode="&#x630;" horiz-adv-x="1178" arabic-form="final" 
d="M1219 0h-232q-96 0 -160 34.5t-100 104.5q-45 -77 -116.5 -108t-164.5 -31h-344v360h355q75 0 123.5 26.5t48.5 59.5q0 9 -4.5 27.5t-10.5 36.5l-188 637h311l156 -539q14 -48 33.5 -101.5t35.5 -79.5q19 -32 44.5 -49.5t62.5 -17.5h150v-360zM1114 0zM642 1389h-148v148
h148v-148z" />
    <glyph glyph-name="afii62782" unicode="&#x631;" horiz-adv-x="1042" arabic-form="final" 
d="M1083 0h-139q-38 0 -88 12t-76 27q-56 -136 -160.5 -225.5t-228.5 -141.5q-126 -53 -252 -74.5t-231 -21.5v363q93 0 213.5 17.5t206.5 52.5q99 41 158 103.5t59 153.5q0 67 -18 138t-40 126q-25 61 -44.5 98.5t-26.5 49.5v12h293q21 -37 50.5 -101t39.5 -100
q17 -58 63 -93.5t125 -35.5h96v-360zM946 0zM829 299z" />
    <glyph glyph-name="afii62783" unicode="&#x632;" horiz-adv-x="1042" arabic-form="final" 
d="M1083 0h-139q-38 0 -88 12t-76 27q-56 -136 -160.5 -225.5t-228.5 -141.5q-126 -53 -252 -74.5t-231 -21.5v363q93 0 213.5 17.5t206.5 52.5q99 41 158 103.5t59 153.5q0 67 -18 138t-40 126q-25 61 -44.5 98.5t-26.5 49.5v12h293q21 -37 50.5 -101t39.5 -100
q17 -58 63 -93.5t125 -35.5h96v-360zM946 0zM829 299zM627 932h-148v148h148v-148z" />
    <glyph glyph-name="afii62786" unicode="&#x633;" horiz-adv-x="3004" arabic-form="final" 
d="M3045 0h-139q-113 0 -191 42.5t-108 100.5q-39 -66 -133 -107.5t-207 -41.5q-99 0 -179 43.5t-118 103.5q-55 -74 -139 -110.5t-184 -36.5q-60 0 -114.5 27t-86.5 71q-36 -242 -224.5 -379t-447.5 -137q-139 0 -258 42.5t-207 124.5q-86 82 -136 207t-50 283
q0 145 17 257t20 126h284v-12q-9 -32 -26 -149.5t-17 -216.5q0 -143 116 -221t257 -78q172 0 283.5 101t111.5 271q0 139 -7 260.5t-9 147.5h305q0 -174 52.5 -269.5t136.5 -95.5q81 0 132.5 61.5t51.5 155.5v148h278v-150q0 -87 42 -148t118 -61q86 0 142.5 65t56.5 169
v297h278v-299q0 -112 60.5 -172t142.5 -60h96v-360zM2871 0z" />
    <glyph glyph-name="afii62784" unicode="&#x633;" horiz-adv-x="2247" arabic-form="initial" 
d="M2083 592q0 -288 -130 -443t-356 -155q-99 0 -178.5 43.5t-118.5 103.5q-48 -65 -121.5 -106t-203.5 -41q-99 0 -179 43.5t-118 103.5q-49 -65 -129.5 -103t-194.5 -38h-395v360h395q82 0 133.5 58.5t51.5 152.5v148h278v-150q0 -86 42 -147.5t118 -61.5q86 0 135 58
t49 153v148h279v-150q0 -87 41.5 -148t117.5 -61q86 0 145.5 65t59.5 169v297h279v-299z" />
    <glyph glyph-name="afii62785" unicode="&#x633;" horiz-adv-x="2335" arabic-form="medial" 
d="M2376 0h-140q-113 0 -191 42.5t-108 100.5q-34 -62 -129 -105.5t-211 -43.5q-99 0 -178.5 43.5t-118.5 103.5q-42 -62 -125 -104.5t-200 -42.5q-99 0 -179 43.5t-118 103.5q-54 -71 -136 -106t-188 -35h-395v360h395q82 0 133.5 58.5t51.5 152.5v148h278v-150
q0 -86 42 -147.5t118 -61.5q86 0 135 58t49 153v148h279v-150q0 -87 41.5 -148t117.5 -61q86 0 142.5 65t56.5 169v297h279v-299q0 -112 60 -172t142 -60h97v-360zM2247 0z" />
    <glyph glyph-name="afii62789" unicode="&#x634;" horiz-adv-x="3004" arabic-form="final" 
d="M3045 0h-139q-113 0 -191 42.5t-108 100.5q-39 -66 -133 -107.5t-207 -41.5q-99 0 -179 43.5t-118 103.5q-55 -74 -139 -110.5t-184 -36.5q-60 0 -114.5 27t-86.5 71q-36 -242 -224.5 -379t-447.5 -137q-139 0 -258 42.5t-207 124.5q-86 82 -136 207t-50 283
q0 145 17 257t20 126h284v-12q-9 -32 -26 -149.5t-17 -216.5q0 -143 116 -221t257 -78q172 0 283.5 101t111.5 271q0 139 -7 260.5t-9 147.5h305q0 -174 52.5 -269.5t136.5 -95.5q81 0 132.5 61.5t51.5 155.5v148h278v-150q0 -87 42 -148t118 -61q86 0 142.5 65t56.5 169
v297h278v-299q0 -112 60.5 -172t142.5 -60h96v-360zM2871 0zM1870 961h-148v148h148v-148zM2166 961h-148v148h148v-148zM2018 1170h-148v148h148v-148z" />
    <glyph glyph-name="afii62787" unicode="&#x634;" horiz-adv-x="2247" arabic-form="initial" 
d="M2083 592q0 -288 -130 -443t-356 -155q-99 0 -178.5 43.5t-118.5 103.5q-48 -65 -121.5 -106t-203.5 -41q-99 0 -179 43.5t-118 103.5q-49 -65 -129.5 -103t-194.5 -38h-395v360h395q82 0 133.5 58.5t51.5 152.5v148h278v-150q0 -86 42 -147.5t118 -61.5q86 0 135 58
t49 153v148h279v-150q0 -87 41.5 -148t117.5 -61q86 0 145.5 65t59.5 169v297h279v-299zM1231 961h-148v148h148v-148zM1527 961h-148v148h148v-148zM1379 1170h-148v148h148v-148z" />
    <glyph glyph-name="afii62788" unicode="&#x634;" horiz-adv-x="2335" arabic-form="medial" 
d="M2376 0h-140q-113 0 -191 42.5t-108 100.5q-34 -62 -129 -105.5t-211 -43.5q-99 0 -178.5 43.5t-118.5 103.5q-42 -62 -125 -104.5t-200 -42.5q-99 0 -179 43.5t-118 103.5q-54 -71 -136 -106t-188 -35h-395v360h395q82 0 133.5 58.5t51.5 152.5v148h278v-150
q0 -86 42 -147.5t118 -61.5q86 0 135 58t49 153v148h279v-150q0 -87 41.5 -148t117.5 -61q86 0 142.5 65t56.5 169v297h279v-299q0 -112 60 -172t142 -60h97v-360zM2247 0zM1196 961h-148v148h148v-148zM1492 961h-148v148h148v-148zM1344 1170h-148v148h148v-148z" />
    <glyph glyph-name="afii62792" unicode="&#x635;" horiz-adv-x="3043" arabic-form="final" 
d="M3084 0h-139q-116 0 -199 45.5t-131 142.5q-104 -88 -243.5 -138t-321.5 -50h-625q-70 -201 -240 -312.5t-411 -111.5q-139 0 -258 42.5t-207 124.5q-86 82 -136 207t-50 283q0 143 17 256t20 127h284v-12q-9 -32 -26 -149.5t-17 -216.5q0 -132 105.5 -215.5t267.5 -83.5
q80 0 152 24.5t123 68.5q59 51 89.5 121t30.5 158q0 141 -7 215.5t-9 89.5h285q2 -13 9 -67t9 -96q1 -21 6.5 -44t20.5 -30q101 143 193 255.5t187 196.5q100 88 217 140.5t253 52.5q180 0 308 -118.5t144 -313.5l2 -35q9 -94 67 -145.5t134 -51.5h96v-360zM2387 418
q61 26 92.5 59.5t31.5 71.5q0 65 -49.5 111.5t-126.5 46.5q-96 0 -180.5 -35.5t-154.5 -87.5q-71 -52 -127 -113t-95 -111h198q141 0 246 16.5t165 41.5zM2910 0z" />
    <glyph glyph-name="afii62790" unicode="&#x635;" horiz-adv-x="1905" arabic-form="initial" 
d="M1782 539q0 -110 -54.5 -209.5t-150.5 -171.5q-99 -74 -230.5 -116t-293.5 -42h-541q-64 0 -114.5 21.5t-78.5 76.5q-32 -53 -79 -75.5t-136 -22.5h-145v360h135q40 0 63 22.5t23 66.5v112h279v-108q0 -33 5.5 -50t20.5 -24q84 120 184.5 245.5t191.5 206.5
q100 89 215.5 141t250.5 52q199 0 327 -137t128 -348zM1381 417q61 26 92.5 60.5t31.5 75.5q0 58 -46.5 106t-129.5 48q-95 0 -178 -35.5t-155 -87.5q-70 -52 -123.5 -110t-98.5 -114h195q142 0 246 15.5t166 41.5z" />
    <glyph glyph-name="afii62791" unicode="&#x635;" horiz-adv-x="2023" arabic-form="medial" 
d="M2064 0h-153q-140 0 -217 41.5t-107 120.5q-106 -79 -241 -120.5t-293 -41.5h-541q-64 0 -114.5 21.5t-78.5 76.5q-32 -53 -79 -75.5t-136 -22.5h-145v360h135q40 0 63 22.5t23 66.5v112h279v-108q0 -33 5.5 -50t20.5 -24q101 143 193 255.5t187 196.5q100 88 217 140.5
t253 52.5q189 0 322 -130t133 -355q0 -34 -8 -78.5t-21 -75.5q22 -13 45.5 -19t61.5 -6h196v-360zM1390 417q64 28 93.5 62t29.5 74q0 58 -46.5 106t-129.5 48q-96 0 -179 -35.5t-154 -87.5q-70 -52 -123.5 -110t-98.5 -114h197q142 0 245.5 15.5t165.5 41.5zM1905 0z" />
    <glyph glyph-name="afii62795" unicode="&#x636;" horiz-adv-x="3043" arabic-form="final" 
d="M3084 0h-139q-116 0 -199 45.5t-131 142.5q-104 -88 -243.5 -138t-321.5 -50h-625q-70 -201 -240 -312.5t-411 -111.5q-139 0 -258 42.5t-207 124.5q-86 82 -136 207t-50 283q0 143 17 256t20 127h284v-12q-9 -32 -26 -149.5t-17 -216.5q0 -132 105.5 -215.5t267.5 -83.5
q80 0 152 24.5t123 68.5q59 51 89.5 121t30.5 158q0 141 -7 215.5t-9 89.5h285q2 -13 9 -67t9 -96q1 -21 6.5 -44t20.5 -30q101 143 193 255.5t187 196.5q100 88 217 140.5t253 52.5q180 0 308 -118.5t144 -313.5l2 -35q9 -94 67 -145.5t134 -51.5h96v-360zM2387 418
q61 26 92.5 59.5t31.5 71.5q0 65 -49.5 111.5t-126.5 46.5q-96 0 -180.5 -35.5t-154.5 -87.5q-71 -52 -127 -113t-95 -111h198q141 0 246 16.5t165 41.5zM2910 0zM1778 1167h-148v148h148v-148z" />
    <glyph glyph-name="afii62793" unicode="&#x636;" horiz-adv-x="1905" arabic-form="initial" 
d="M1782 539q0 -110 -54.5 -209.5t-150.5 -171.5q-99 -74 -230.5 -116t-293.5 -42h-541q-64 0 -114.5 21.5t-78.5 76.5q-32 -53 -79 -75.5t-136 -22.5h-145v360h135q40 0 63 22.5t23 66.5v112h279v-108q0 -33 5.5 -50t20.5 -24q84 120 184.5 245.5t191.5 206.5
q100 89 215.5 141t250.5 52q199 0 327 -137t128 -348zM1381 417q61 26 92.5 60.5t31.5 75.5q0 58 -46.5 106t-129.5 48q-95 0 -178 -35.5t-155 -87.5q-70 -52 -123.5 -110t-98.5 -114h195q142 0 246 15.5t166 41.5zM658 1165h-148v148h148v-148z" />
    <glyph glyph-name="afii62794" unicode="&#x636;" horiz-adv-x="2023" arabic-form="medial" 
d="M2064 0h-153q-140 0 -217 41.5t-107 120.5q-106 -79 -241 -120.5t-293 -41.5h-541q-64 0 -114.5 21.5t-78.5 76.5q-32 -53 -79 -75.5t-136 -22.5h-145v360h135q40 0 63 22.5t23 66.5v112h279v-108q0 -33 5.5 -50t20.5 -24q101 143 193 255.5t187 196.5q100 88 217 140.5
t253 52.5q189 0 322 -130t133 -355q0 -34 -8 -78.5t-21 -75.5q22 -13 45.5 -19t61.5 -6h196v-360zM1390 417q64 28 93.5 62t29.5 74q0 58 -46.5 106t-129.5 48q-96 0 -179 -35.5t-154 -87.5q-70 -52 -123.5 -110t-98.5 -114h197q142 0 245.5 15.5t165.5 41.5zM1905 0z
M781 1165h-148v148h148v-148z" />
    <glyph glyph-name="afii62798" unicode="&#x637;" horiz-adv-x="1765" arabic-form="final" 
d="M1140 420q61 27 92.5 61t31.5 72q0 66 -47 110t-130 44q-92 0 -175 -35.5t-155 -87.5q-63 -46 -119 -103.5t-106 -120.5h197q140 0 244.5 16.5t166.5 43.5zM1815 0h-154q-142 0 -218 42t-106 120q-104 -79 -240 -120.5t-294 -41.5h-844v360h258l31 31v1165h276v-815
q106 121 255 202t306 81q198 0 326.5 -131.5t128.5 -343.5q0 -57 -14.5 -109.5l-14.5 -52.5q22 -13 45.5 -20t61.5 -7h197v-360zM1663 0z" />
    <glyph glyph-name="afii62796" unicode="&#x637;" horiz-adv-x="1663" arabic-form="initial" 
d="M1264 553q0 66 -47 110t-130 44q-92 0 -175 -35.5t-155 -87.5q-63 -46 -119 -103.5t-106 -120.5h197q140 0 244.5 16.5t166.5 43.5q61 27 92.5 61t31.5 72zM1540 549q0 -113 -57 -217t-152 -174q-100 -75 -233 -116.5t-295 -41.5h-844v360h258l31 31v1165h276v-815
q107 122 256.5 202.5t304.5 80.5q198 0 326.5 -132t128.5 -343z" />
    <glyph glyph-name="afii62797" unicode="&#x637;" horiz-adv-x="1765" arabic-form="medial" 
d="M1140 420q61 27 92.5 61t31.5 72q0 66 -47 110t-130 44q-92 0 -175 -35.5t-155 -87.5q-63 -46 -119 -103.5t-106 -120.5h197q140 0 244.5 16.5t166.5 43.5zM1815 0h-154q-142 0 -218 42t-106 120q-104 -79 -240 -120.5t-294 -41.5h-844v360h258l31 31v1165h276v-815
q106 121 255 202t306 81q198 0 326.5 -131.5t128.5 -343.5q0 -57 -14.5 -109.5l-14.5 -52.5q22 -13 45.5 -20t61.5 -7h197v-360zM1663 0z" />
    <glyph glyph-name="afii62801" unicode="&#x638;" horiz-adv-x="1765" arabic-form="final" 
d="M1140 420q61 27 92.5 61t31.5 72q0 66 -47 110t-130 44q-92 0 -175 -35.5t-155 -87.5q-63 -46 -119 -103.5t-106 -120.5h197q140 0 244.5 16.5t166.5 43.5zM1815 0h-154q-142 0 -218 42t-106 120q-104 -79 -240 -120.5t-294 -41.5h-844v360h258l31 31v1165h276v-815
q106 121 255 202t306 81q198 0 326.5 -131.5t128.5 -343.5q0 -57 -14.5 -109.5l-14.5 -52.5q22 -13 45.5 -20t61.5 -7h197v-360zM1663 0zM877 1167h-148v148h148v-148z" />
    <glyph glyph-name="afii62799" unicode="&#x638;" horiz-adv-x="1663" arabic-form="initial" 
d="M1264 553q0 66 -47 110t-130 44q-92 0 -175 -35.5t-155 -87.5q-63 -46 -119 -103.5t-106 -120.5h197q140 0 244.5 16.5t166.5 43.5q61 27 92.5 61t31.5 72zM1540 549q0 -113 -57 -217t-152 -174q-100 -75 -233 -116.5t-295 -41.5h-844v360h258l31 31v1165h276v-815
q107 122 256.5 202.5t304.5 80.5q198 0 326.5 -132t128.5 -343zM930 1266h-148v148h148v-148z" />
    <glyph glyph-name="afii62800" unicode="&#x638;" horiz-adv-x="1765" arabic-form="medial" 
d="M1140 420q61 27 92.5 61t31.5 72q0 66 -47 110t-130 44q-92 0 -175 -35.5t-155 -87.5q-63 -46 -119 -103.5t-106 -120.5h197q140 0 244.5 16.5t166.5 43.5zM1815 0h-154q-142 0 -218 42t-106 120q-104 -79 -240 -120.5t-294 -41.5h-844v360h258l31 31v1165h276v-815
q106 121 255 202t306 81q198 0 326.5 -131.5t128.5 -343.5q0 -57 -14.5 -109.5l-14.5 -52.5q22 -13 45.5 -20t61.5 -7h197v-360zM1663 0zM877 1167h-148v148h148v-148z" />
    <glyph glyph-name="afii62804" unicode="&#x639;" horiz-adv-x="1384" arabic-form="final" 
d="M985 -424h-207q-139 0 -260 34.5t-208 100.5q-88 67 -137.5 165.5t-49.5 227.5q0 63 23.5 114t61.5 94q34 38 77.5 68t85.5 52l8 4q-28 22 -59.5 52t-70.5 82q-34 44 -58.5 95t-24.5 97q0 56 32 108.5t100 101.5q64 46 161.5 75.5t218.5 29.5t217 -30t161 -76
q67 -46 102.5 -102t35.5 -109q0 -92 -83.5 -176.5t-213.5 -139.5l-84 -34q31 -18 85 -34t126 -16h401v-360h-329q-71 0 -133.5 18t-111.5 44q-51 27 -98 63.5t-75 60.5l-100 84q-24 -13 -69.5 -64.5t-45.5 -96.5q0 -50 26 -84.5t70 -53.5q46 -20 99 -27t118 -7h209v-361z
M913 727q0 28 -72.5 60t-162.5 32q-95 0 -162 -34t-67 -58q0 -44 58.5 -102t94.5 -80l37 -23l53 19q91 32 156 88t65 98z" />
    <glyph glyph-name="afii62802" unicode="&#x639;" horiz-adv-x="1391" arabic-form="initial" 
d="M1290 184q-337 -95 -561.5 -139.5t-337.5 -44.5h-432v360h301q-32 30 -61 104.5t-29 137.5q0 223 148.5 366.5t383.5 143.5q115 0 242 -28.5t184 -55.5v-309h-12q-73 27 -198.5 52.5t-206.5 25.5q-118 0 -191.5 -61.5t-73.5 -143.5q0 -72 45.5 -128.5t104.5 -82.5
q169 20 366.5 65.5t327.5 75.5v-338z" />
    <glyph glyph-name="afii62803" unicode="&#x639;" horiz-adv-x="1208" arabic-form="medial" 
d="M1249 0h-317q-92 0 -180 41.5t-150 99.5q-66 -65 -152 -103t-178 -38h-313v360h317q19 0 38 5.5t26 11.5q-38 26 -83.5 65t-81.5 78q-40 43 -67.5 87t-27.5 79q0 77 48 137t126 102q69 38 162 60.5t186 22.5q90 0 181 -20.5t169 -60.5q77 -40 126.5 -100t49.5 -137
q0 -36 -29 -81t-68 -85q-35 -36 -86 -81.5t-81 -69.5q4 -6 22 -9.5t42 -3.5h321v-360zM750 552q44 32 70 54.5t26 36.5q0 23 -24 41t-61 31q-38 13 -80 19.5t-79 6.5q-86 0 -163 -29.5t-77 -66.5q0 -12 28 -37.5t68 -54.5q36 -26 80 -54t64 -38q26 13 69 39t79 52z" />
    <glyph glyph-name="afii62807" unicode="&#x63a;" horiz-adv-x="1384" arabic-form="final" 
d="M985 -424h-207q-139 0 -260 34.5t-208 100.5q-88 67 -137.5 165.5t-49.5 227.5q0 63 23.5 114t61.5 94q34 38 77.5 68t85.5 52l8 4q-28 22 -59.5 52t-70.5 82q-34 44 -58.5 95t-24.5 97q0 56 32 108.5t100 101.5q64 46 161.5 75.5t218.5 29.5t217 -30t161 -76
q67 -46 102.5 -102t35.5 -109q0 -92 -83.5 -176.5t-213.5 -139.5l-84 -34q31 -18 85 -34t126 -16h401v-360h-329q-71 0 -133.5 18t-111.5 44q-51 27 -98 63.5t-75 60.5l-100 84q-24 -13 -69.5 -64.5t-45.5 -96.5q0 -50 26 -84.5t70 -53.5q46 -20 99 -27t118 -7h209v-361z
M913 727q0 28 -72.5 60t-162.5 32q-95 0 -162 -34t-67 -58q0 -44 58.5 -102t94.5 -80l37 -23l53 19q91 32 156 88t65 98zM744 1317h-148v148h148v-148z" />
    <glyph glyph-name="afii62805" unicode="&#x63a;" horiz-adv-x="1391" arabic-form="initial" 
d="M1290 184q-337 -95 -561.5 -139.5t-337.5 -44.5h-432v360h301q-32 30 -61 104.5t-29 137.5q0 223 148.5 366.5t383.5 143.5q115 0 242 -28.5t184 -55.5v-309h-12q-73 27 -198.5 52.5t-206.5 25.5q-118 0 -191.5 -61.5t-73.5 -143.5q0 -72 45.5 -128.5t104.5 -82.5
q169 20 366.5 65.5t327.5 75.5v-338zM758 1354h-148v148h148v-148z" />
    <glyph glyph-name="afii62806" unicode="&#x63a;" horiz-adv-x="1208" arabic-form="medial" 
d="M1249 0h-317q-92 0 -180 41.5t-150 99.5q-66 -65 -152 -103t-178 -38h-313v360h317q19 0 38 5.5t26 11.5q-38 26 -83.5 65t-81.5 78q-40 43 -67.5 87t-27.5 79q0 77 48 137t126 102q69 38 162 60.5t186 22.5q90 0 181 -20.5t169 -60.5q77 -40 126.5 -100t49.5 -137
q0 -36 -29 -81t-68 -85q-35 -36 -86 -81.5t-81 -69.5q4 -6 22 -9.5t42 -3.5h321v-360zM750 552q44 32 70 54.5t26 36.5q0 23 -24 41t-61 31q-38 13 -80 19.5t-79 6.5q-86 0 -163 -29.5t-77 -66.5q0 -12 28 -37.5t68 -54.5q36 -26 80 -54t64 -38q26 13 69 39t79 52zM666 1249
h-148v148h148v-148z" />
    <glyph glyph-name="afii62810" unicode="&#x641;" horiz-adv-x="2154" arabic-form="final" 
d="M2195 0h-305q-93 0 -175 25.5t-150 72.5q-74 -47 -159.5 -72.5t-170.5 -25.5h-291q-393 0 -605 147.5t-212 442.5q0 99 15 188.5t16 95.5h272v-8q-5 -22 -14.5 -105t-9.5 -159q0 -113 146 -177.5t392 -64.5h322q-50 38 -96 116t-46 151q0 158 124.5 269.5t310.5 111.5
q185 0 312.5 -111t127.5 -279q0 -78 -54 -157t-85 -101h335v-360zM1647 468q25 30 39 56.5t14 61.5q0 61 -44 99t-97 38q-57 0 -96.5 -39t-39.5 -98q0 -28 16 -59.5t39 -58.5q18 -22 45 -43t40 -24q17 5 41.5 25t42.5 42zM1631 1249h-148v148h148v-148z" />
    <glyph glyph-name="afii62808" unicode="&#x641;" horiz-adv-x="1110" arabic-form="initial" 
d="M827 1116q74 -92 117 -222t43 -296q0 -140 -62.5 -253t-158.5 -188q-99 -77 -215 -117t-227 -40h-365v360h342q135 0 237 41t144 117l-59.5 -6t-106.5 -6q-93 0 -166.5 26.5t-126.5 78.5q-50 49 -76 115t-26 144q0 171 104.5 296.5t257.5 125.5q94 0 182 -43.5
t162 -132.5zM692 780q-12 81 -72.5 146t-115.5 65q-48 0 -77.5 -35.5t-29.5 -81.5q0 -45 36 -75.5t95 -30.5q38 0 95.5 3.5t68.5 8.5zM509 1533h-148v148h148v-148z" />
    <glyph glyph-name="afii62809" unicode="&#x641;" horiz-adv-x="1171" arabic-form="medial" 
d="M1212 0h-180q-71 0 -135.5 15.5t-121.5 39.5q-57 25 -102.5 51t-88.5 54q-45 -28 -85 -53t-105 -52t-119 -41t-138 -14h-178v360h104q83 0 154.5 13.5l71.5 13.5q-53 48 -84 110t-31 146q0 83 27.5 148.5t81.5 117.5q52 49 129.5 77t171.5 28q192 0 301.5 -108
t109.5 -281q0 -69 -33 -130.5t-83 -107.5l20 -4.5t51 -9.5q37 -5 72 -9t84 -4h106v-360zM719 612q0 45 -37.5 80t-95.5 35q-66 0 -100.5 -35.5t-34.5 -79.5q0 -38 47.5 -75t89.5 -54q52 24 91.5 59.5t39.5 69.5zM650 1255h-148v148h148v-148z" />
    <glyph glyph-name="afii62813" unicode="&#x642;" horiz-adv-x="2165" arabic-form="final" 
d="M1702 383q-13 135 -63.5 215t-102.5 80q-55 0 -92 -43t-37 -103t88 -101t207 -48zM1946 16q-63 -137 -154 -223.5t-217 -134.5q-120 -46 -275.5 -64t-357.5 -18q-403 0 -611 151t-208 439q0 115 16.5 198t18.5 93h266v-8q-4 -21 -14.5 -101t-10.5 -170q0 -113 142 -176
t403 -63q186 0 320 20t218 44q90 27 123.5 44t39.5 21q-250 28 -382.5 155t-132.5 303q0 184 118.5 318.5t285.5 134.5q179 0 308 -162t153 -450q10 -2 70.5 -4.5t91.5 -2.5h49v-360h-45q-55 0 -123 6t-92 10zM1391 1221h-148v148h148v-148zM1659 1221h-148v148h148v-148z
" />
    <glyph glyph-name="afii62811" unicode="&#x642;" horiz-adv-x="1110" arabic-form="initial" 
d="M827 1116q74 -92 117 -222t43 -296q0 -140 -62.5 -253t-158.5 -188q-99 -77 -215 -117t-227 -40h-365v360h342q135 0 237 41t144 117l-59.5 -6t-106.5 -6q-93 0 -166.5 26.5t-126.5 78.5q-50 49 -76 115t-26 144q0 171 104.5 296.5t257.5 125.5q94 0 182 -43.5
t162 -132.5zM692 780q-12 81 -72.5 146t-115.5 65q-48 0 -77.5 -35.5t-29.5 -81.5q0 -45 36 -75.5t95 -30.5q38 0 95.5 3.5t68.5 8.5zM367 1534h-148v148h148v-148zM635 1534h-148v148h148v-148z" />
    <glyph glyph-name="afii62812" unicode="&#x642;" horiz-adv-x="1171" arabic-form="medial" 
d="M1212 0h-180q-71 0 -135.5 15.5t-121.5 39.5q-57 25 -102.5 51t-88.5 54q-45 -28 -85 -53t-105 -52t-119 -41t-138 -14h-178v360h104q83 0 154.5 13.5l71.5 13.5q-53 48 -84 110t-31 146q0 83 27.5 148.5t81.5 117.5q52 49 129.5 77t171.5 28q192 0 301.5 -108
t109.5 -281q0 -69 -33 -130.5t-83 -107.5l20 -4.5t51 -9.5q37 -5 72 -9t84 -4h106v-360zM719 612q0 45 -37.5 80t-95.5 35q-66 0 -100.5 -35.5t-34.5 -79.5q0 -38 47.5 -75t89.5 -54q52 24 91.5 59.5t39.5 69.5zM510 1202h-148v148h148v-148zM778 1202h-148v148h148v-148z
" />
    <glyph glyph-name="afii62816" unicode="&#x643;" horiz-adv-x="1843" arabic-form="final" 
d="M1745 0q-107 0 -186.5 45t-112.5 102q-33 -58 -111 -102.5t-186 -44.5h-563q-99 0 -183 17.5t-144 59.5q-63 43 -99.5 120t-36.5 200q0 74 7 135t9 72h271v-8q-1 -5 -6 -53.5t-5 -81.5q0 -49 46.5 -75t140.5 -26h518q90 0 146.5 64t56.5 174v956h278v-956
q0 -112 56.5 -175t148.5 -63h94v-360h-139zM1006 903q0 -85 -101 -135.5t-262 -50.5v94q116 0 193 21t77 61q0 18 -19.5 30t-55.5 21l-76 19q-53 12 -85 45t-32 88q0 70 69.5 113.5t201.5 43.5v-90q-93 0 -138 -17.5t-45 -47.5q0 -18 20 -31.5t56 -21.5l84 -21
q45 -10 79 -37t34 -84zM1749 0z" />
    <glyph glyph-name="afii57410" unicode="&#x643;" horiz-adv-x="1139" arabic-form="initial" 
d="M1079 1288l-594 -194q-53 -17 -76.5 -34.5t-23.5 -31.5q0 -18 35.5 -46t87.5 -62l256 -168q106 -70 158.5 -149.5t52.5 -188.5q0 -186 -118.5 -300t-301.5 -114h-596v360h604q69 0 110.5 24.5t41.5 59.5q0 29 -32.5 63t-107.5 85l-282 190q-125 82 -167 139t-42 123
q0 83 71 156t203 121l721 266v-299z" />
    <glyph glyph-name="afii62815" unicode="&#x643;" horiz-adv-x="1225" arabic-form="medial" 
d="M1266 0h-197q-77 0 -142 22t-108 58q-56 -40 -118 -60t-146 -20h-596v360h604q69 0 110.5 24.5t41.5 59.5q0 29 -32.5 63t-107.5 85l-282 190q-125 82 -167 139t-42 123q0 83 71 156t203 121l721 266v-299l-594 -194q-53 -17 -76.5 -34.5t-23.5 -31.5q0 -18 35.5 -46
t87.5 -62l256 -168q106 -70 158.5 -149.5t52.5 -188.5q29 -27 62.5 -40.5t74.5 -13.5h154v-360zM1139 0z" />
    <glyph glyph-name="afii62819" unicode="&#x644;" horiz-adv-x="1675" arabic-form="final" 
d="M1716 0h-139q-58 0 -102.5 11t-59.5 22q-19 -219 -196 -338t-494 -119q-328 0 -465 119t-137 405q0 107 15 218.5t16 119.5h272v-8q-3 -21 -15 -133t-12 -195q0 -91 80 -128t248 -37q201 0 306.5 49t105.5 137v1431h278v-956q0 -106 54.5 -172t150.5 -66h94v-360zM1579 0
z" />
    <glyph glyph-name="afii62817" unicode="&#x644;" horiz-adv-x="698" arabic-form="initial" 
d="M537 598q0 -263 -116.5 -430.5t-322.5 -167.5h-139v360h94q42 0 79.5 14.5t64.5 43.5q30 32 45.5 73.5t15.5 106.5v956h279v-956z" />
    <glyph glyph-name="afii62818" unicode="&#x644;" horiz-adv-x="797" arabic-form="medial" 
d="M834 0h-140q-106 0 -186 45t-113 102q-42 -68 -118.5 -107.5t-178.5 -39.5h-139v360h94q89 0 146 61.5t57 176.5v956h279v-956q0 -107 54 -172.5t150 -65.5h95v-360zM698 0z" />
    <glyph glyph-name="afii62822" unicode="&#x645;" horiz-adv-x="1511" arabic-form="final" 
d="M1552 0h-41q-89 0 -165 52t-144 136q-52 -95 -144.5 -149.5t-209.5 -54.5q-83 0 -166.5 31t-149.5 89q-94 -233 -257 -358.5t-404 -169.5v358q109 21 194 53.5t144 95.5q61 64 100 165.5t58 269.5q23 208 121.5 317t283.5 111q131 2 239.5 -57.5t190.5 -206.5
q39 -70 80 -135.5t73 -102.5q39 -44 78 -64t83 -20h36v-360zM983 467q0 72 -59.5 124t-137.5 52q-60 0 -100.5 -42.5t-40.5 -102.5q0 -62 55.5 -109t135.5 -47q66 0 106.5 34t40.5 91zM1386 0zM1264 442z" />
    <glyph glyph-name="afii62820" unicode="&#x645;" horiz-adv-x="1221" arabic-form="initial" 
d="M1098 426q0 -193 -118.5 -317.5t-295.5 -124.5q-88 0 -168 30.5t-143 85.5q-60 -50 -128 -75t-167 -25h-119v360h123q67 0 92 47.5t29 110.5q10 189 120 308.5t285 119.5q96 0 185 -37t154 -102q68 -66 109.5 -163t41.5 -218zM819 467q0 73 -60 124.5t-136 51.5
q-61 0 -101.5 -42.5t-40.5 -102.5q0 -62 55.5 -109t135.5 -47q66 0 106.5 34t40.5 91z" />
    <glyph glyph-name="afii62821" unicode="&#x645;" horiz-adv-x="1350" arabic-form="medial" 
d="M1389 0h-41q-90 0 -165.5 51t-144.5 137q-52 -95 -144.5 -149.5t-209.5 -54.5q-88 0 -168 30.5t-143 85.5q-60 -50 -128 -75t-167 -25h-119v360h123q55 0 84.5 36.5t36.5 121.5q10 189 120 308.5t285 119.5q149 0 252.5 -65.5t177.5 -198.5q39 -70 80 -135.5t73 -102.5
q39 -44 78 -64t83 -20h37v-360zM819 467q0 73 -60 124.5t-136 51.5q-61 0 -101.5 -42.5t-40.5 -102.5q0 -62 55.5 -109t135.5 -47q66 0 106.5 34t40.5 91zM1221 0zM1098 426z" />
    <glyph glyph-name="afii62825" unicode="&#x646;" horiz-adv-x="1729" arabic-form="final" 
d="M1769 0h-227q-20 0 -41 2.5t-47 9.5q-44 -204 -220 -320t-437 -116q-145 0 -269 33.5t-214 108.5q-91 76 -141 196t-50 291q0 136 17 247t20 123h282v-8q-13 -50 -28 -163t-15 -201q0 -129 103 -196.5t291 -67.5q186 0 292.5 64.5t106.5 199.5q0 126 -10 226t-21 138v8
h309q0 -114 33 -164.5t84 -50.5h182v-360zM870 817h-147v148h147v-148zM1591 0zM1468 253z" />
    <glyph glyph-name="afii62823" unicode="&#x646;" horiz-adv-x="698" arabic-form="initial" 
d="M537 598q0 -275 -120.5 -436.5t-318.5 -161.5h-139v360h94q93 0 149 63t56 175v293h279v-293zM414 1135h-148v148h148v-148z" />
    <glyph glyph-name="afii62824" unicode="&#x646;" horiz-adv-x="793" arabic-form="medial" 
d="M834 0h-140q-106 0 -186 45t-113 102q-42 -68 -118.5 -107.5t-178.5 -39.5h-139v360h94q89 0 146 61.5t57 176.5v123h279v-123q0 -107 54 -172.5t150 -65.5h95v-360zM698 0zM465 963h-148v148h148v-148z" />
    <glyph glyph-name="afii62828" unicode="&#x647;" horiz-adv-x="1362" arabic-form="final" 
d="M1403 0h-137q-92 0 -162 32.5t-121 86.5t-83.5 121t-53.5 143q-59 -53 -149.5 -86t-168.5 -33q-189 0 -302 115t-113 297q0 114 51 203.5t147 153.5q95 62 230.5 96t302.5 42l260 13v-586q0 -114 58 -176t145 -62h96v-360zM825 645v240q-193 -17 -299 -64t-106 -143
q0 -46 38 -77.5t95 -31.5q77 0 155 25t117 51z" />
    <glyph glyph-name="afii62829" unicode="&#x648;" horiz-adv-x="1157" arabic-form="final" 
d="M694 383q-13 136 -63 215.5t-103 79.5q-54 0 -91.5 -43t-37.5 -103t88 -101t207 -48zM1198 0h-45q-55 0 -127 7t-88 9q-63 -136 -183 -223.5t-262 -134.5t-285.5 -64.5t-270.5 -17.5v344q186 0 322 23.5t215 50.5q91 31 123.5 50.5t39.5 23.5q-250 28 -382 154.5
t-132 303.5q0 186 118.5 319.5t284.5 133.5q186 0 314 -171t147 -441q17 -2 76.5 -4.5t85.5 -2.5h49v-360zM961 274zM1083 0z" />
    <glyph glyph-name="afii62830" unicode="&#x649;" horiz-adv-x="2247" arabic-form="final" 
d="M2288 0h-99q-53 0 -102 28t-95 72q-46 46 -91.5 106t-84.5 115q-42 60 -83.5 118t-83.5 103q-43 47 -85.5 74t-86.5 27q-52 0 -90.5 -33t-38.5 -63q0 -32 58.5 -75t111.5 -82q84 -61 127 -119t43 -115q0 -223 -227 -353.5t-638 -130.5q-364 0 -532 132.5t-168 402.5
q0 110 11.5 207.5t19.5 126.5h274v-11q-4 -22 -15.5 -112.5t-11.5 -208.5q0 -89 91 -132.5t333 -43.5q292 0 438 31.5t146 93.5q0 45 -55.5 87t-114.5 82q-65 44 -117.5 97.5t-52.5 124.5q0 144 119.5 255t288.5 111q68 0 124.5 -25t103.5 -62q54 -42 97 -93t80 -98
q40 -51 78 -101.5t74 -88.5q39 -41 74 -64t77 -23h103v-360z" />
    <glyph glyph-name="afii62833" unicode="&#x64a;" horiz-adv-x="2345" arabic-form="final" 
d="M2386 0h-98q-66 0 -124 35t-110 94q-47 53 -97.5 132t-92.5 150q-38 65 -89.5 149.5t-91.5 133.5q-49 60 -98 94.5t-108 34.5q-52 0 -90.5 -33t-38.5 -63q0 -32 59.5 -78t102.5 -79q96 -77 128.5 -130.5t32.5 -103.5q0 -96 -47.5 -186t-147.5 -154q-107 -69 -268.5 -106
t-384.5 -37q-368 0 -534 132t-166 402q0 131 13 224.5t18 109.5h274v-10q-3 -15 -15 -108.5t-12 -213.5q0 -54 30.5 -88.5t85.5 -53.5t132.5 -26.5t175.5 -7.5q292 0 430 31.5t138 93.5q0 41 -44 80t-118 90q-88 61 -125 113t-37 108q0 69 29.5 134t84.5 118q51 50 129 82.5
t165 32.5q78 0 144.5 -32t122.5 -83q55 -50 106 -118t94 -135q35 -54 82.5 -129t86.5 -124q44 -57 86 -86t85 -29h102v-360zM561 -276h148v-148h-148v148zM829 -276h148v-148h-148v148z" />
    <glyph glyph-name="afii62831" unicode="&#x64a;" horiz-adv-x="698" arabic-form="initial" 
d="M537 598q0 -275 -120.5 -436.5t-318.5 -161.5h-139v360h94q93 0 149 63t56 175v293h279v-293zM130 -295h-148v148h148v-148zM398 -295h-148v148h148v-148z" />
    <glyph glyph-name=".notdef" horiz-adv-x="2048" 
d="M256 0v1536h1536v-1536h-1536zM384 128h1280v1280h-1280v-1280z" />
    <glyph glyph-name=".null" 
 />
    <glyph glyph-name="nonmarkingreturn" horiz-adv-x="600" 
 />
    <glyph glyph-name="space" unicode=" " horiz-adv-x="600" 
 />
    <glyph glyph-name="space" unicode="&#xa0;" horiz-adv-x="600" 
 />
    <glyph glyph-name="exclam" unicode="!" horiz-adv-x="702" 
d="M550 1489l-41 -1060h-316l-41 1060h398zM548 0h-394v264h394v-264z" />
    <glyph glyph-name="quotedbl" unicode="&#x22;" horiz-adv-x="1002" 
d="M874 1556l-60 -589h-206l-60 589h326zM453 1556l-60 -589h-206l-60 589h326z" />
    <glyph glyph-name="numbersign" unicode="#" horiz-adv-x="1676" 
d="M1551 913h-304l-83 -328h271v-230h-329l-90 -355h-232l89 355h-254l-89 -355h-235l89 355h-259v230h317l82 328h-282v230h339l87 346h236l-87 -346h253l87 346h236l-88 -346h246v-230zM1016 915h-258l-84 -332h258z" />
    <glyph glyph-name="dollar" unicode="$" horiz-adv-x="1304" 
d="M1226 429q0 -84 -35 -159t-97 -131q-63 -57 -154 -94.5t-205 -43.5v-362h-164v357q-108 1 -240 27t-209 65v290h32q48 -31 173 -71.5t249 -45.5v277l-89 22q-77 19 -147 46t-126 74q-55 46 -86.5 111.5t-31.5 168.5q0 150 125.5 255.5t349.5 127.5v233h164v-231
q90 -3 206.5 -26.5t178.5 -50.5v-288h-32q-73 45 -159 71t-199 32v-254l88 -19q208 -45 308 -131.5t100 -249.5zM583 848v234q-56 -5 -97 -33t-41 -81q0 -43 24 -71t114 -49zM872 390q0 50 -35.5 82t-113.5 47v-256q63 6 106 35.5t43 91.5z" />
    <glyph glyph-name="percent" unicode="%" horiz-adv-x="2455" 
d="M974 1036q0 -248 -110.5 -368.5t-320.5 -120.5q-216 0 -326 120t-110 365t112 365.5t324 120.5q216 0 323.5 -120.5t107.5 -361.5zM1748 1489l-780 -1489h-264l780 1489h264zM2346 458q0 -248 -110.5 -368.5t-320.5 -120.5q-216 0 -326 120t-110 365t112 365.5t324 120.5
q216 0 323.5 -120.5t107.5 -361.5zM689 1033q0 63 -5.5 115t-21.5 87t-45 52.5t-74 17.5q-48 0 -75 -17.5t-44 -53.5q-15 -32 -21 -87t-6 -115q0 -74 4 -117.5t22 -83.5q15 -35 44.5 -53.5t75.5 -18.5q45 0 74 18t45 54q14 32 20.5 82t6.5 120zM2061 455q0 63 -5.5 115
t-21.5 87t-45 52.5t-74 17.5q-48 0 -75 -17.5t-44 -53.5q-15 -32 -21 -87t-6 -115q0 -74 4 -117.5t22 -83.5q15 -35 44.5 -53.5t75.5 -18.5q45 0 74 18t45 54q14 32 20.5 82t6.5 120z" />
    <glyph glyph-name="ampersand" unicode="&#x26;" horiz-adv-x="1600" 
d="M1658 0h-445l-130 126q-105 -85 -215 -121t-230 -36q-258 0 -405.5 127.5t-147.5 332.5q0 87 23.5 149t61.5 112q35 47 82.5 82.5t92.5 61.5q-43 34 -76.5 66.5t-59.5 72.5q-26 39 -40 84.5t-14 106.5q0 65 26 127t86 115q56 49 156 81.5t233 32.5q119 0 206 -25t146 -67
q57 -42 87.5 -101.5t30.5 -128.5q0 -44 -13.5 -100t-45.5 -101q-39 -55 -101.5 -98.5t-158.5 -75.5l286 -276v322h349v-111q0 -41 -8.5 -101.5t-22.5 -103.5q-15 -49 -41.5 -101t-67.5 -99l356 -333v-20zM766 1154q0 50 -13.5 81t-34.5 48q-19 16 -42 20t-36 4q-15 0 -33 -4
t-41 -21q-18 -13 -32 -43t-14 -71q0 -59 39.5 -110.5t109.5 -109.5q48 44 72.5 94t24.5 112zM918 295l-400 379q-16 -23 -35.5 -75.5t-19.5 -110.5q0 -66 22.5 -114.5t58.5 -80.5t80.5 -48t89.5 -16q62 0 109.5 14.5t94.5 51.5z" />
    <glyph glyph-name="quotesingle" unicode="'" horiz-adv-x="564" 
d="M445 1556l-60 -589h-206l-60 589h326z" />
    <glyph glyph-name="parenleft" unicode="(" horiz-adv-x="930" 
d="M850 -412h-367q-85 101 -154 208t-119 230q-47 115 -73.5 255t-26.5 291q0 165 27.5 299t71.5 245q48 121 117.5 228.5t156.5 211.5h367v-29q-81 -73 -154.5 -165.5t-136.5 -216.5q-60 -119 -97.5 -264t-37.5 -309q0 -171 36.5 -310t98.5 -263q60 -118 135.5 -214.5
t155.5 -167.5v-29z" />
    <glyph glyph-name="parenright" unicode=")" horiz-adv-x="930" 
d="M819 572q0 -151 -26.5 -290.5t-73.5 -255.5q-50 -123 -119 -230t-154 -208h-367v29q80 71 156 167t135 215q62 124 98.5 263t36.5 310q0 164 -37.5 309t-97.5 264q-63 124 -136.5 216.5t-154.5 165.5v29h367q87 -104 156.5 -211.5t117.5 -228.5q44 -111 71.5 -245
t27.5 -299z" />
    <glyph glyph-name="asterisk" unicode="*" horiz-adv-x="1304" 
d="M1133 861l-103 -152l-312 213l11 -348h-200l6 338l-305 -204l-102 154l344 203l-342 205l100 154l305 -207l-6 339h199l-6 -339l308 206l103 -154l-346 -203z" />
    <glyph glyph-name="plus" unicode="+" horiz-adv-x="1676" 
d="M1482 528h-512v-508h-264v508h-512v258h512v508h264v-508h512v-258z" />
    <glyph glyph-name="comma" unicode="," horiz-adv-x="640" 
d="M558 393l-350 -763h-213l197 763h366z" />
    <glyph glyph-name="hyphen" unicode="-" horiz-adv-x="883" 
d="M773 518h-663v278h663v-278z" />
    <glyph glyph-name="hyphen" unicode="&#xad;" horiz-adv-x="883" 
d="M773 518h-663v278h663v-278z" />
    <glyph glyph-name="period" unicode="." horiz-adv-x="640" 
d="M497 0h-354v393h354v-393z" />
    <glyph glyph-name="slash" unicode="/" horiz-adv-x="1182" 
d="M998 1556l-593 -1880h-287l590 1880h290z" />
    <glyph glyph-name="zero" unicode="0" horiz-adv-x="1304" 
d="M1226 745q0 -193 -31 -338t-99 -242t-177 -146.5t-267 -49.5q-157 0 -266 49.5t-178 148.5q-68 98 -99 241.5t-31 335.5q0 198 30.5 338t101.5 241q70 99 180 147.5t262 48.5q161 0 268.5 -50.5t176.5 -150.5q68 -98 98.5 -242t30.5 -331zM851 745q0 276 -45.5 387.5
t-153.5 111.5q-107 0 -153 -111.5t-46 -389.5q0 -272 46 -385.5t153 -113.5t153 113.5t46 387.5z" />
    <glyph glyph-name="one" unicode="1" horiz-adv-x="1304" 
d="M1179 0h-984v260h314v787h-314v243q69 0 137 9t109 29q48 24 74.5 64.5t30.5 100.5h326v-1233h307v-260z" />
    <glyph glyph-name="two" unicode="2" horiz-adv-x="1304" 
d="M1245 0h-1094v243q139 110 249.5 208t194.5 186q109 115 158 202t49 179q0 104 -62 159.5t-173 55.5q-57 0 -107.5 -14t-102.5 -36q-51 -23 -87 -47l-54 -36h-29v325q63 30 197 61.5t258 31.5q265 0 401.5 -118t136.5 -332q0 -132 -62 -258.5t-206 -271.5
q-90 -89 -175 -158.5t-123 -98.5h631v-281z" />
    <glyph glyph-name="three" unicode="3" horiz-adv-x="1304" 
d="M1208 451q0 -109 -40.5 -199t-118.5 -153q-79 -63 -185.5 -96.5t-259.5 -33.5q-174 0 -298.5 29t-202.5 65v323h36q82 -52 192.5 -90t201.5 -38q54 0 117.5 9.5t106.5 41.5q34 25 54.5 61.5t20.5 103.5q0 66 -29 101.5t-77 51.5q-48 17 -115 19t-118 2h-64v262h59
q68 0 125 6t97 24q40 19 62.5 53t22.5 92q0 45 -21 73.5t-52 44.5q-36 18 -84 24t-82 6q-55 0 -112 -13t-111 -33q-42 -16 -88 -41.5t-68 -38.5h-31v319q77 33 207.5 63.5t266.5 30.5q133 0 230.5 -23t166.5 -67q76 -47 114 -119.5t38 -163.5q0 -127 -73.5 -222.5
t-193.5 -123.5v-14q53 -8 103.5 -27t98.5 -62q45 -39 74.5 -100.5t29.5 -146.5z" />
    <glyph glyph-name="four" unicode="4" horiz-adv-x="1304" 
d="M1262 347h-201v-351h-361v351h-655v278l643 864h373v-874h201v-268zM700 615v507l-377 -507h377z" />
    <glyph glyph-name="five" unicode="5" horiz-adv-x="1304" 
d="M1211 504q0 -116 -39.5 -215t-118.5 -171q-78 -71 -185.5 -110t-264.5 -39q-166 1 -285.5 28.5t-197.5 61.5v325h34l63 -36t92 -42q53 -21 107.5 -34.5t121.5 -13.5q58 0 125 14.5t108 52.5q30 30 47 67t17 99q0 52 -21.5 89.5t-56.5 60.5q-51 34 -123 43.5t-124 9.5
q-82 0 -159.5 -13t-134.5 -28h-32v836h986v-281h-633v-248q30 2 71.5 3.5t64.5 1.5q107 0 198 -21.5t161 -66.5q85 -55 132 -147.5t47 -225.5z" />
    <glyph glyph-name="six" unicode="6" horiz-adv-x="1304" 
d="M1236 507q0 -235 -149 -386.5t-409 -151.5q-130 0 -232 37.5t-173 110.5q-85 86 -130 222t-45 325q0 196 42 348t137 269q91 111 238 173.5t348 62.5q73 0 146.5 -9.5t100.5 -15.5v-293h-27q-26 13 -86 29.5t-137 16.5q-175 0 -270 -92t-117 -264q73 47 148.5 75
t170.5 28q80 0 150.5 -21.5t125.5 -62.5q77 -59 122.5 -155t45.5 -246zM802 282q29 36 44.5 78.5t15.5 128.5q0 72 -18 119t-51 75t-75 38.5t-89 10.5q-39 0 -80.5 -10t-77.5 -25q0 -10 -1 -33t-1 -58q0 -128 22.5 -206t56.5 -118q26 -32 59.5 -46t70.5 -14q30 0 65 15
t59 45z" />
    <glyph glyph-name="seven" unicode="7" horiz-adv-x="1304" 
d="M1212 1193l-634 -1193h-416l665 1208h-710v281h1095v-296z" />
    <glyph glyph-name="eight" unicode="8" horiz-adv-x="1304" 
d="M1241 415q0 -96 -39.5 -178.5t-115.5 -142.5t-185.5 -94t-250.5 -34q-150 0 -263 34.5t-185 93.5q-71 59 -105 139t-34 169q0 128 70.5 213t204.5 142v6q-131 64 -183 155t-52 203q0 82 36 154t108 129q68 54 172.5 86.5t234.5 32.5q138 0 240.5 -29.5t168.5 -77.5
q68 -49 104 -118.5t36 -150.5q0 -106 -61.5 -191.5t-188.5 -143.5v-6q148 -60 218 -157.5t70 -233.5zM841 1103q0 76 -50 121.5t-136 45.5q-82 0 -132.5 -41t-50.5 -101t30.5 -96.5t94.5 -67.5q28 -14 66.5 -29t102.5 -39q39 51 57 98.5t18 108.5zM872 399q0 73 -31 112
t-133 88q-29 14 -83.5 35t-96.5 39q-39 -39 -69.5 -96.5t-30.5 -126.5q0 -104 66 -166t174 -62q29 0 66.5 9.5t66.5 29.5q32 23 51.5 54t19.5 84z" />
    <glyph glyph-name="nine" unicode="9" horiz-adv-x="1304" 
d="M1206 828q0 -190 -44 -348t-137 -271q-96 -115 -238.5 -176.5t-349.5 -61.5q-70 0 -146 9t-101 16v293h29q28 -14 79.5 -30t142.5 -16q73 0 141 19.5t117 61.5q51 44 85 110t46 165q-80 -50 -148.5 -76.5t-170.5 -26.5q-77 0 -147.5 20.5t-128.5 63.5q-77 60 -122 154.5
t-45 244.5q0 116 39.5 214.5t112.5 171.5q72 72 177 113t234 41q130 0 231 -36.5t173 -111.5q84 -85 127.5 -219t43.5 -324zM836 884q0 121 -20.5 199.5t-57.5 122.5q-26 32 -58.5 46t-70.5 14q-33 0 -64.5 -13.5t-60.5 -46.5q-26 -29 -44 -85t-18 -123q0 -72 18.5 -118.5
t50.5 -74.5q32 -27 73 -38t91 -11q42 0 86.5 11.5t71.5 23.5q0 11 1.5 31.5t1.5 61.5z" />
    <glyph glyph-name="colon" unicode=":" horiz-adv-x="744" 
d="M549 730h-354v393h354v-393zM549 0h-354v393h354v-393z" />
    <glyph glyph-name="semicolon" unicode=";" horiz-adv-x="744" 
d="M549 730h-354v393h354v-393zM610 393l-350 -763h-213l197 763h366z" />
    <glyph glyph-name="semicolon" unicode="&#x37e;" horiz-adv-x="744" 
d="M549 730h-354v393h354v-393zM610 393l-350 -763h-213l197 763h366z" />
    <glyph glyph-name="less" unicode="&#x3c;" horiz-adv-x="1676" 
d="M1465 14l-1284 533v220l1284 533v-276l-899 -368l899 -366v-276z" />
    <glyph glyph-name="equal" unicode="=" horiz-adv-x="1676" 
d="M1452 776h-1228v258h1228v-258zM1452 280h-1228v258h1228v-258z" />
    <glyph glyph-name="greater" unicode="&#x3e;" horiz-adv-x="1676" 
d="M1495 547l-1284 -533v276l899 367l-899 367v276l1284 -533v-220z" />
    <glyph glyph-name="question" unicode="?" horiz-adv-x="1160" 
d="M1084 1126q0 -99 -29.5 -177.5t-83.5 -136.5q-53 -57 -127.5 -102t-166.5 -82v-228h-342v335q56 15 124.5 41t120.5 64q55 39 90 91t35 123q0 99 -63 144t-175 45q-84 0 -178.5 -37t-148.5 -74h-29v301q64 28 187 57t264 29q126 0 222.5 -29.5t164.5 -82.5
q66 -53 100.5 -124.5t34.5 -156.5zM705 0h-394v264h394v-264z" />
    <glyph glyph-name="at" unicode="@" horiz-adv-x="1884" 
d="M1751 663q0 -137 -39.5 -284.5t-96.5 -239.5h-488l-15 78q-26 -18 -51.5 -34t-56.5 -27q-35 -13 -65 -19t-82 -6q-76 0 -142 34t-114 98q-47 62 -74.5 158.5t-27.5 209.5q0 116 34 211t91 164q54 63 127.5 100t153.5 37q64 0 114 -26t77 -53v61l221 1v-808h150
q29 66 47.5 156t18.5 183q0 164 -44 287t-123 206q-80 84 -187.5 124.5t-232.5 40.5q-118 0 -223.5 -45t-194.5 -134q-85 -86 -136.5 -212t-51.5 -279q0 -163 48.5 -290t133.5 -213q82 -85 191 -128.5t228 -43.5q84 0 182.5 15t181.5 40v-213q-91 -21 -175.5 -31t-189.5 -10
q-177 0 -328.5 63.5t-260.5 178.5q-110 116 -171.5 278t-61.5 356q0 184 64 343t176 278q111 117 263 183.5t324 66.5q171 0 319 -62t255 -174q109 -112 170.5 -268.5t61.5 -350.5zM1091 404v504q-41 21 -75.5 30.5t-78.5 9.5q-97 0 -149 -86t-52 -228q0 -157 43.5 -233.5
t142.5 -76.5q52 0 90.5 20.5t78.5 59.5z" />
    <glyph glyph-name="A" unicode="A" horiz-adv-x="1402" 
d="M-6 0l503 1489h408l503 -1489h-385l-93 304h-468l-93 -304h-375zM848 574l-152 491l-152 -491h304z" />
    <glyph glyph-name="B" unicode="B" horiz-adv-x="1405" 
d="M1345 456q0 -111 -42 -195t-113 -139q-84 -66 -184.5 -94t-255.5 -28h-596v1489h526q164 0 248.5 -12.5t158.5 -52.5q80 -43 119.5 -115t39.5 -166q0 -109 -54.5 -194t-150.5 -125v-8q138 -29 221 -118.5t83 -241.5zM866 1068q0 36 -18.5 74t-57.5 55q-37 16 -87.5 17.5
t-150.5 1.5h-26v-315h47q96 0 134.5 2t79.5 21q45 21 62 58t17 86zM960 463q0 69 -28 108t-84 59q-34 13 -93.5 14.5t-159.5 1.5h-69v-373h20q146 0 202 2t114 27q51 22 74.5 64.5t23.5 96.5z" />
    <glyph glyph-name="C" unicode="C" horiz-adv-x="1367" 
d="M796 -29q-335 0 -532 202.5t-197 569.5q0 354 197.5 564.5t532.5 210.5q89 0 160 -10t136 -28q51 -15 111 -41t97 -45v-355h-38q-27 24 -68 57.5t-93 65.5t-114.5 54.5t-130.5 22.5q-81 0 -148.5 -25.5t-128.5 -88.5q-56 -57 -91.5 -154t-35.5 -229q0 -139 37 -233.5
t97 -152.5q58 -56 129.5 -81t142.5 -25q74 0 141 24.5t113 54.5q50 31 88 63t66 57h34v-350q-41 -19 -95 -43.5t-111 -41.5q-70 -21 -131 -32t-168 -11z" />
    <glyph glyph-name="D" unicode="D" horiz-adv-x="1551" 
d="M1484 743q0 -208 -91 -372.5t-230 -252.5q-116 -75 -252.5 -96.5t-290.5 -21.5h-466v1489h462q157 0 294 -20t257 -97q147 -94 232 -253.5t85 -375.5zM1100 746q0 147 -50.5 251.5t-155.5 163.5q-76 42 -159.5 46t-199.5 4h-7v-932h7q126 0 212.5 4.5t164.5 53.5
q92 58 140 160t48 249z" />
    <glyph glyph-name="E" unicode="E" horiz-adv-x="1260" 
d="M154 0v1489h1007v-284h-635v-261h585v-284h-585v-376h635v-284h-1007z" />
    <glyph glyph-name="F" unicode="F" horiz-adv-x="1190" 
d="M1151 1205h-625v-281h575v-284h-575v-640h-372v1489h997v-284z" />
    <glyph glyph-name="G" unicode="G" horiz-adv-x="1526" 
d="M1398 85q-98 -40 -254.5 -78t-308.5 -38q-351 0 -559.5 202.5t-208.5 574.5q0 350 208.5 561t570.5 211q187 0 304 -35.5t242 -96.5v-349h-34q-27 21 -77.5 59.5t-98.5 65.5q-56 32 -129.5 55t-155.5 23q-96 0 -175 -30t-141 -92q-59 -60 -93.5 -152t-34.5 -214
q0 -261 131 -385t358 -124q20 0 47 1t47 3v292h-289v279h651v-733z" />
    <glyph glyph-name="H" unicode="H" horiz-adv-x="1565" 
d="M1411 0h-374v660h-509v-660h-374v1489h374v-545h509v545h374v-1489z" />
    <glyph glyph-name="I" unicode="I" horiz-adv-x="990" 
d="M896 0h-802v260h214v969h-214v260h802v-260h-214v-969h214v-260z" />
    <glyph glyph-name="J" unicode="J" horiz-adv-x="1025" 
d="M890 437q0 -97 -33 -182.5t-100 -145.5q-75 -68 -177 -100t-235 -32q-99 0 -186 7.5t-153 21.5v302h34q45 -18 94 -33.5t126 -15.5q99 0 152.5 28t75.5 78q23 49 25.5 113.5t2.5 143.5v597h-341v270h715v-1052z" />
    <glyph glyph-name="K" unicode="K" horiz-adv-x="1426" 
d="M1459 0h-452l-406 605l-73 -102v-503h-374v1489h374v-661l476 661h433l-531 -691z" />
    <glyph glyph-name="L" unicode="L" horiz-adv-x="1172" 
d="M1148 0h-994v1489h374v-1205h620v-284z" />
    <glyph glyph-name="M" unicode="M" horiz-adv-x="1829" 
d="M1675 0h-372v987l-271 -637h-255l-271 637v-987h-352v1489h431l330 -735l329 735h431v-1489z" />
    <glyph glyph-name="N" unicode="N" horiz-adv-x="1578" 
d="M1430 0h-360l-574 1038v-1038h-342v1489h459l475 -853v853h342v-1489z" />
    <glyph glyph-name="O" unicode="O" horiz-adv-x="1577" 
d="M1510 744q0 -361 -193 -568t-529 -207q-337 0 -529 209.5t-192 565.5q0 359 192 567.5t529 208.5q336 0 529 -207.5t193 -568.5zM1124 745q0 133 -27.5 226.5t-73.5 153.5q-48 61 -108.5 87.5t-125.5 26.5q-69 0 -125 -24.5t-108 -87.5q-46 -58 -74.5 -154t-28.5 -229
q0 -137 27 -227.5t74 -151.5q48 -62 109 -88.5t126 -26.5q66 0 128 28.5t107 88.5q48 65 74 151.5t26 226.5z" />
    <glyph glyph-name="P" unicode="P" horiz-adv-x="1346" 
d="M1300 1019q0 -104 -33 -198t-95 -157q-38 -39 -83.5 -72t-100.5 -56t-119.5 -36t-144.5 -13h-196v-487h-374v1489h578q129 0 222.5 -23.5t169.5 -74.5q84 -56 130 -149.5t46 -222.5zM916 1010q0 63 -30 108.5t-72 62.5q-53 23 -101.5 26.5t-131.5 3.5h-53v-446h26
q53 0 100 1t82 7q30 5 63.5 19.5t51.5 32.5q38 37 51.5 77t13.5 108z" />
    <glyph glyph-name="Q" unicode="Q" horiz-adv-x="1577" 
d="M1508 -394q-60 -15 -120.5 -22t-189.5 -7q-118 0 -200.5 29.5t-137.5 83.5q-55 53 -82.5 126t-31.5 157q-316 14 -497.5 219t-181.5 552q0 359 192 567.5t529 208.5q336 0 529 -207.5t193 -568.5q0 -263 -109.5 -451.5t-309.5 -267.5q2 -109 48.5 -150.5t163.5 -41.5
q45 0 95.5 13.5t72.5 25.5h37v-266zM1024 367q48 65 74 151.5t26 226.5q0 133 -27.5 226.5t-73.5 153.5q-48 61 -108.5 87.5t-125.5 26.5q-69 0 -125 -24.5t-108 -87.5q-46 -58 -74.5 -154t-28.5 -229q0 -137 27 -227.5t74 -151.5q48 -62 109 -88.5t126 -26.5q66 0 128 28.5
t107 88.5z" />
    <glyph glyph-name="R" unicode="R" horiz-adv-x="1487" 
d="M1531 0h-456l-415 546h-134v-546h-372v1489h599q124 0 216 -15.5t170 -64.5q80 -51 127 -129.5t47 -199.5q0 -171 -77 -277.5t-206 -169.5zM929 1033q0 56 -21.5 96.5t-71.5 62.5q-35 15 -78 19t-107 4h-125v-401h107q78 0 132.5 9.5t92.5 40.5q36 28 53.5 67t17.5 102z
" />
    <glyph glyph-name="S" unicode="S" horiz-adv-x="1297" 
d="M614 -27q-171 0 -300.5 33t-240.5 82v354h34q112 -95 247 -146t262 -51q32 0 84.5 7t84.5 22q39 17 66 47.5t27 80.5q0 56 -44 91t-105 51q-76 20 -162.5 38t-161.5 44q-173 61 -248 164t-75 258q0 209 177 338.5t442 129.5q133 0 264.5 -27t235.5 -73v-340h-33
q-83 71 -202.5 120t-245.5 49q-49 0 -88 -7t-82 -27q-35 -16 -60.5 -47.5t-25.5 -70.5q0 -57 40.5 -90.5t156.5 -60.5q75 -17 144.5 -33t148.5 -44q155 -56 230.5 -150.5t75.5 -249.5q0 -222 -174.5 -357t-471.5 -135z" />
    <glyph glyph-name="T" unicode="T" horiz-adv-x="1254" 
d="M440 0v1205h-440v284h1254v-284h-440v-1205h-374z" />
    <glyph glyph-name="U" unicode="U" horiz-adv-x="1513" 
d="M756 -31q-300 0 -461.5 145t-161.5 424v951h374v-929q0 -155 58.5 -231t190.5 -76q129 0 189.5 73t60.5 234v929h374v-950q0 -275 -157.5 -422.5t-466.5 -147.5z" />
    <glyph glyph-name="V" unicode="V" horiz-adv-x="1382" 
d="M1398 1489l-512 -1489h-390l-512 1489h388l324 -1009l324 1009h378z" />
    <glyph glyph-name="W" unicode="W" horiz-adv-x="2105" 
d="M2075 1489l-377 -1489h-410l-239 921l-232 -921h-410l-377 1489h388l205 -999l250 999h371l237 -999l216 999h378z" />
    <glyph glyph-name="X" unicode="X" horiz-adv-x="1402" 
d="M1414 0h-434l-286 475l-292 -475h-414l483 750l-464 739h433l268 -449l275 449h415l-467 -724z" />
    <glyph glyph-name="Y" unicode="Y" horiz-adv-x="1373" 
d="M1392 1489l-514 -867v-622h-374v603l-523 886h426l292 -532l281 532h412z" />
    <glyph glyph-name="Z" unicode="Z" horiz-adv-x="1275" 
d="M1235 0h-1181v279l685 926h-649v284h1105v-284l-684 -921h724v-284z" />
    <glyph glyph-name="bracketleft" unicode="[" horiz-adv-x="930" 
d="M794 -392h-628v1948h628v-236h-325v-1476h325v-236z" />
    <glyph glyph-name="backslash" unicode="\" horiz-adv-x="1182" 
d="M1074 -324h-287l-593 1880h290z" />
    <glyph glyph-name="bracketright" unicode="]" horiz-adv-x="930" 
d="M763 -392h-628v236h325v1476h-325v236h628v-1948z" />
    <glyph glyph-name="asciicircum" unicode="^" horiz-adv-x="1676" 
d="M1503 674h-312l-369 537l-338 -539h-311l529 817h240z" />
    <glyph glyph-name="underscore" unicode="_" horiz-adv-x="1304" 
d="M1320 -345h-1336v201h1336v-201z" />
    <glyph glyph-name="grave" unicode="`" horiz-adv-x="1118" 
d="M808 1283h-238l-300 393h331z" />
    <glyph glyph-name="a" unicode="a" horiz-adv-x="1226" 
d="M753 293v234q-89 -9 -144 -15.5t-108 -25.5q-46 -16 -71.5 -48.5t-25.5 -86.5q0 -79 42.5 -108.5t125.5 -29.5q46 0 94 21t87 59zM753 119q-36 -30 -64.5 -54t-76.5 -48q-47 -23 -91.5 -35t-124.5 -12q-149 0 -247.5 100t-98.5 252q0 125 50 202t144 122q95 46 227 64
t284 28v6q0 93 -68.5 128.5t-205.5 35.5q-62 0 -145 -22.5t-162 -57.5h-30v271q52 15 168 35.5t234 20.5q290 0 422.5 -96.5t132.5 -294.5v-764h-348v119z" />
    <glyph glyph-name="b" unicode="b" horiz-adv-x="1294" 
d="M877 570q0 168 -51 240t-157 72q-47 0 -93.5 -15t-91.5 -45v-564q35 -14 70.5 -19t70.5 -5q127 0 189.5 84t62.5 252zM1235 577q0 -268 -136 -433.5t-337 -165.5q-84 0 -146 19t-132 59l-15 -56h-335v1556h350v-550q77 66 157 107t185 41q196 0 302.5 -153t106.5 -424z
" />
    <glyph glyph-name="c" unicode="c" horiz-adv-x="1080" 
d="M685 -30q-139 0 -254.5 35t-200.5 108q-84 73 -131 183.5t-47 260.5q0 161 51 274t138 186q84 70 197.5 103.5t236.5 33.5q93 0 186 -21.5t187 -68.5v-300h-45q-21 20 -51.5 44t-66.5 44q-38 21 -86 35.5t-107 14.5q-134 0 -207.5 -93.5t-73.5 -251.5q0 -169 78.5 -252
t208.5 -83q66 0 116 15t86 36q35 21 60 43.5t43 40.5h45v-300q-30 -13 -69.5 -30t-80.5 -28q-51 -14 -95.5 -21.5t-117.5 -7.5z" />
    <glyph glyph-name="d" unicode="d" horiz-adv-x="1289" 
d="M1155 0h-350v117q-34 -28 -77.5 -60t-76.5 -48q-42 -20 -83 -30t-98 -10q-192 0 -304 159t-112 425q0 147 38 255t105 188q61 73 148 115.5t184 42.5q88 0 144.5 -18.5t131.5 -57.5v478h350v-1556zM805 310v551q-26 13 -68 21.5t-72 8.5q-126 0 -189.5 -88t-63.5 -246
q0 -166 50.5 -240t163.5 -74q46 0 93 18t86 49z" />
    <glyph glyph-name="e" unicode="e" horiz-adv-x="1216" 
d="M709 -30q-318 0 -487.5 152t-169.5 433q0 275 158 439t442 164q258 0 388 -139t130 -398v-126h-767q5 -78 33 -130.5t74 -83.5q45 -31 105 -44.5t131 -13.5q61 0 120 13.5t108 35.5q43 19 79.5 41t59.5 39h37v-289q-43 -17 -78.5 -31.5t-97.5 -29.5q-57 -15 -117.5 -23.5
t-147.5 -8.5zM825 706q-3 111 -51.5 169t-148.5 58q-102 0 -159.5 -61t-63.5 -166h423z" />
    <glyph glyph-name="f" unicode="f" horiz-adv-x="783" 
d="M852 1292h-27q-20 6 -62.5 15.5t-80.5 9.5q-106 0 -144.5 -39t-38.5 -146v-9h278v-244h-266v-879h-350v879h-140v244h140v31q0 206 108 309t327 103q76 0 142 -5.5t114 -14.5v-254z" />
    <glyph glyph-name="g" unicode="g" horiz-adv-x="1289" 
d="M805 354v509q-26 12 -64 20t-76 8q-126 0 -189.5 -81.5t-63.5 -227.5q0 -73 9.5 -123.5t35.5 -89.5q25 -38 65.5 -57.5t103.5 -19.5q47 0 92.5 16t86.5 46zM1155 129q0 -156 -45 -265t-123 -170q-78 -62 -187 -89.5t-242 -27.5q-112 0 -212.5 14.5t-174.5 33.5v281h41
q26 -10 61.5 -22t71.5 -22q43 -11 84 -18t84 -7q89 0 148.5 18.5t89.5 52.5q30 35 42 82.5t12 119.5v21q-59 -52 -136.5 -83.5t-159.5 -31.5q-218 0 -336.5 142t-118.5 432q0 132 36.5 237t101.5 179q62 71 150 109.5t183 38.5q86 0 154 -22t124 -59l13 50h339v-994z" />
    <glyph glyph-name="h" unicode="h" horiz-adv-x="1311" 
d="M1186 0h-352v557q0 68 -5.5 135.5t-20.5 99.5q-18 38 -52 54.5t-91 16.5q-43 0 -87 -16t-94 -51v-796h-350v1556h350v-557q86 73 167.5 114t180.5 41q172 0 263 -108.5t91 -314.5v-731z" />
    <glyph glyph-name="i" unicode="i" horiz-adv-x="618" 
d="M484 0h-350v1123h350v-1123zM494 1283h-370v273h370v-273z" />
    <glyph glyph-name="j" unicode="j" horiz-adv-x="743" 
d="M609 -20q0 -190 -113 -296.5t-292 -106.5q-96 0 -174 8.5t-114 17.5v258h27q34 -11 75.5 -17.5t66.5 -6.5q101 0 137.5 62t36.5 204v776h-202v244h552v-1143zM609 1283h-373v273h373v-273z" />
    <glyph glyph-name="k" unicode="k" horiz-adv-x="1234" 
d="M1258 0h-416l-304 489l-54 -73v-416h-350v1556h350v-872l332 439h413l-393 -484z" />
    <glyph glyph-name="l" unicode="l" horiz-adv-x="618" 
d="M484 0h-350v1556h350v-1556z" />
    <glyph glyph-name="m" unicode="m" horiz-adv-x="1953" 
d="M1476 0v561q0 83 -3 140t-18 93t-46.5 52.5t-88.5 16.5q-40 0 -79 -17.5t-85 -49.5v-796h-352v561q0 82 -3.5 139.5t-18.5 93.5t-46.5 52.5t-87.5 16.5q-43 0 -84 -20t-80 -47v-796h-350v1123h350v-124q86 73 162 114t171 41q103 0 181 -49t119 -146q101 94 190.5 144.5
t181.5 50.5q78 0 140 -25t105 -75q47 -54 70.5 -128.5t23.5 -194.5v-731h-352z" />
    <glyph glyph-name="n" unicode="n" horiz-adv-x="1311" 
d="M1186 0h-352v557q0 68 -5.5 135.5t-20.5 99.5q-18 38 -52 54.5t-91 16.5q-43 0 -87 -16t-94 -51v-796h-350v1123h350v-124q86 73 167.5 114t180.5 41q172 0 263 -108.5t91 -314.5v-731z" />
    <glyph glyph-name="o" unicode="o" horiz-adv-x="1264" 
d="M1212 561q0 -277 -151.5 -436.5t-428.5 -159.5q-275 0 -427.5 159.5t-152.5 436.5q0 280 152.5 438.5t427.5 158.5q276 0 428 -159.5t152 -437.5zM853 559q0 100 -16.5 166.5t-45.5 106.5q-31 42 -70 58.5t-89 16.5q-47 0 -85 -14.5t-70 -55.5q-30 -39 -48 -107t-18 -171
t17 -166.5t44 -101.5q28 -39 70 -57t93 -18q42 0 85.5 18t69.5 54q31 43 47 103.5t16 167.5z" />
    <glyph glyph-name="p" unicode="p" horiz-adv-x="1289" 
d="M1235 577q0 -269 -136.5 -434t-336.5 -165q-84 0 -146 19t-132 59v-468h-350v1535h350v-117q77 66 157 107t185 41q195 0 302 -155t107 -422zM877 570q0 164 -50.5 238t-157.5 74q-47 0 -93.5 -15t-91.5 -45v-565q28 -12 61.5 -17t79.5 -5q128 0 190 83.5t62 251.5z" />
    <glyph glyph-name="q" unicode="q" horiz-adv-x="1289" 
d="M1155 -412h-350v522q-37 -30 -77 -58.5t-76 -44.5q-45 -21 -82 -29.5t-100 -8.5q-191 0 -303.5 159t-112.5 425q0 147 38 255t105 188q61 73 148 115.5t184 42.5q83 0 144.5 -21t129.5 -60l13 50h339v-1535zM805 310v551q-26 13 -68 21.5t-72 8.5q-126 0 -189.5 -88
t-63.5 -246q0 -166 50.5 -240t163.5 -74q46 0 93 18t86 49z" />
    <glyph glyph-name="r" unicode="r" horiz-adv-x="888" 
d="M888 792h-29q-20 7 -58 10.5t-84 3.5q-55 0 -115.5 -16t-117.5 -38v-752h-350v1123h350v-161q24 22 66.5 55.5t77.5 53.5q38 23 88.5 39.5t95.5 16.5q17 0 38 -1t38 -3v-331z" />
    <glyph glyph-name="s" unicode="s" horiz-adv-x="1054" 
d="M476 -31q-124 0 -234.5 27t-182.5 63v296h29q25 -19 57 -42t89 -48q49 -23 110.5 -39.5t133.5 -16.5q74 0 130.5 23t56.5 73q0 39 -26 59t-101 38q-40 10 -101 21.5t-108 26.5q-132 41 -198.5 121.5t-66.5 211.5q0 75 34.5 141.5t101.5 118.5q67 51 165.5 81t222.5 30
q118 0 217 -23.5t167 -56.5v-284h-28q-18 14 -57 37.5t-76 40.5q-44 20 -98.5 33t-111.5 13q-76 0 -128.5 -26t-52.5 -69q0 -38 26 -60t113 -43q45 -11 103.5 -21.5t112.5 -28.5q121 -39 183.5 -114.5t62.5 -200.5q0 -79 -37 -150.5t-105 -120.5q-72 -53 -169.5 -82
t-233.5 -29z" />
    <glyph glyph-name="t" unicode="t" horiz-adv-x="851" 
d="M564 -22q-214 0 -311.5 88t-97.5 288v525h-134v244h134v321h350v-321h337v-244h-337v-398q0 -59 1 -103t16 -79q14 -35 49.5 -55.5t103.5 -20.5q28 0 73.5 12t63.5 22h30v-247q-57 -15 -121 -23.5t-157 -8.5z" />
    <glyph glyph-name="u" unicode="u" horiz-adv-x="1311" 
d="M1177 0h-350v124q-91 -76 -167 -115.5t-181 -39.5q-167 0 -260.5 105.5t-93.5 317.5v731h352v-557q0 -87 4.5 -142t21.5 -93q16 -35 49.5 -53t93.5 -18q37 0 87.5 18t93.5 49v796h350v-1123z" />
    <glyph glyph-name="v" unicode="v" horiz-adv-x="1185" 
d="M1185 1123l-403 -1123h-382l-400 1123h368l230 -743l227 743h360z" />
    <glyph glyph-name="w" unicode="w" horiz-adv-x="1822" 
d="M1807 1123l-328 -1123h-372l-197 726l-198 -726h-372l-325 1123h368l172 -743l213 743h309l201 -743l169 743h360z" />
    <glyph glyph-name="x" unicode="x" horiz-adv-x="1238" 
d="M1242 0h-410l-214 323l-220 -323h-402l413 561l-406 562h410l210 -317l211 317h403l-407 -553z" />
    <glyph glyph-name="y" unicode="y" horiz-adv-x="1179" 
d="M1182 1123l-567 -1535h-376l170 439l-412 1096h368l236 -704l221 704h360z" />
    <glyph glyph-name="z" unicode="z" horiz-adv-x="1077" 
d="M1030 0h-982v231l536 629h-512v263h947v-227l-537 -628h548v-268z" />
    <glyph glyph-name="braceleft" unicode="{" horiz-adv-x="1276" 
d="M1139 -392h-264q-194 0 -307 98.5t-113 288.5v149q0 169 -75 243t-259 74h-65v242h65q184 0 259 74t75 243v149q0 190 113 288.5t307 98.5h264v-220h-109q-60 0 -108.5 -9t-81.5 -34q-34 -26 -51 -75.5t-17 -127.5v-113q0 -144 -82.5 -238.5t-219.5 -144.5v-24
q137 -50 219.5 -144.5t82.5 -238.5v-113q0 -78 17 -127.5t51 -75.5q32 -26 81 -34.5t109 -8.5h109v-220z" />
    <glyph glyph-name="bar" unicode="|" horiz-adv-x="1304" 
d="M792 -392h-281v1948h281v-1948z" />
    <glyph glyph-name="braceright" unicode="}" horiz-adv-x="1276" 
d="M1220 461h-65q-184 0 -259 -74t-75 -243v-149q0 -190 -113 -288.5t-307 -98.5h-264v220h109q60 0 108.5 9t81.5 34q34 26 51 75.5t17 127.5v113q0 144 82.5 238.5t219.5 144.5v24q-137 50 -219.5 144.5t-82.5 238.5v113q0 78 -17 127.5t-51 75.5q-33 25 -81.5 34
t-108.5 9h-109v220h264q194 0 307 -98.5t113 -288.5v-149q0 -169 75 -243t259 -74h65v-242z" />
    <glyph glyph-name="asciitilde" unicode="~" horiz-adv-x="1676" 
d="M1545 989q-1 -315 -106 -484.5t-311 -169.5q-68 0 -119.5 16t-92.5 43q-44 30 -74 62t-65 72q-29 34 -55 68.5t-53 63.5q-24 26 -53.5 44.5t-57.5 18.5q-56 0 -86 -27.5t-48 -79.5q-17 -55 -21.5 -129t-7.5 -154h-260q0 324 107 489t310 165q66 0 118 -16.5t96 -44.5
q42 -27 78.5 -65t60.5 -67q27 -34 54.5 -69.5t53.5 -62.5q26 -28 53 -45.5t56 -17.5q54 0 86 28t48 79q17 55 22 129t7 154h260z" />
    <glyph glyph-name="exclamdown" unicode="&#xa1;" horiz-adv-x="702" 
d="M548 1225h-394v264h394v-264zM550 0h-398l41 1060h316z" />
    <glyph glyph-name="cent" unicode="&#xa2;" horiz-adv-x="1304" 
d="M712 -16q-131 9 -231.5 49t-173.5 111q-75 73 -116 178.5t-41 244.5q0 147 45 257t123 183q76 71 178.5 108t215.5 45v315h164v-319q103 -12 177.5 -40.5t102.5 -41.5v-295h-45q-32 30 -96.5 72t-142.5 58v-676q81 13 142.5 51.5t96.5 77.5h45v-295q-47 -21 -122 -46.5
t-158 -33.5v-348h-164v345zM716 236v672q-102 -24 -159 -116.5t-57 -224.5q0 -140 58.5 -224t157.5 -107z" />
    <glyph glyph-name="sterling" unicode="&#xa3;" horiz-adv-x="1304" 
d="M1207 0h-1087v277q110 32 154 108.5t44 217.5h-166v213h166v265q0 195 138.5 316t354.5 121q126 0 210 -17t128 -31v-306h-35q-47 37 -111.5 60.5t-130.5 23.5q-90 0 -146.5 -59.5t-56.5 -166.5v-206h373v-213h-373q0 -39 -12 -92.5t-29 -88.5q-20 -40 -49.5 -74.5
t-68.5 -55.5v-11h697v-281z" />
    <glyph glyph-name="currency" unicode="&#xa4;" horiz-adv-x="1304" 
d="M1186 283l-154 -155l-200 199q-41 -22 -82.5 -34t-97.5 -12q-58 2 -100 13.5t-80 32.5l-201 -201l-157 157l202 200q-21 39 -32 82.5t-11 93.5q0 53 11.5 97.5t36.5 87.5l-200 202l150 151l201 -201q43 23 82.5 33t98.5 10q50 1 93.5 -10.5t81.5 -31.5l202 200l156 -156
l-201 -200q21 -37 34 -83.5t13 -96.5q-1 -54 -12.5 -98.5t-32.5 -80.5zM811 662q0 68 -47 115t-115 47q-67 1 -114.5 -46.5t-47.5 -115.5q0 -65 48 -113.5t114 -48.5q68 1 115 48t47 114z" />
    <glyph glyph-name="yen" unicode="&#xa5;" horiz-adv-x="1304" 
d="M1283 1489l-455 -807v-57h315v-213h-313v-412h-358v412h-313v213h315v38l-453 826h406l232 -487l232 487h392z" />
    <glyph glyph-name="brokenbar" unicode="&#xa6;" horiz-adv-x="1304" 
d="M792 758h-281v798h281v-798zM792 -392h-281v798h281v-798z" />
    <glyph glyph-name="section" unicode="&#xa7;" horiz-adv-x="1304" 
d="M1204 602q0 -100 -54 -182.5t-150 -141.5v-7q94 -53 133.5 -123t39.5 -158q0 -81 -39.5 -152t-114.5 -121q-81 -54 -180.5 -81.5t-246.5 -27.5q-96 0 -222 16.5t-195 40.5v286h22q46 -28 140.5 -58.5t192.5 -30.5q126 0 181 33t55 90q0 39 -21 64t-61 44q-44 20 -106 39
t-134 44q-167 58 -252.5 139.5t-85.5 210.5q0 99 52.5 180.5t151.5 143.5v7q-96 55 -136 127t-40 164q0 74 39.5 141t114.5 120q74 51 183.5 81t243.5 30q103 0 216 -15.5t191 -41.5v-286h-22q-46 28 -139 58.5t-184 30.5q-105 0 -170.5 -34.5t-65.5 -88.5q0 -39 21.5 -63.5
t62.5 -43.5q42 -19 101 -38t140 -46q166 -57 252 -139t86 -211zM848 547q0 56 -36.5 91.5t-103.5 62.5q-23 9 -62 22.5t-89 28.5q-35 -28 -65 -73t-30 -98q0 -57 37.5 -92.5t102.5 -61.5q26 -10 68.5 -25t83.5 -27q28 21 61 67.5t33 104.5z" />
    <glyph glyph-name="dieresis" unicode="&#xa8;" horiz-adv-x="1118" 
d="M940 1283h-287v273h287v-273zM459 1283h-287v273h287v-273z" />
    <glyph glyph-name="copyright" unicode="&#xa9;" horiz-adv-x="1902" 
d="M1816 655q0 -358 -253.5 -611.5t-611.5 -253.5t-611.5 253.5t-253.5 611.5t253.5 611.5t611.5 253.5t611.5 -253.5t253.5 -611.5zM1625 655q0 279 -197.5 479t-476.5 200t-476.5 -200t-197.5 -479t197.5 -479t476.5 -200t476.5 200t197.5 479zM1269 277
q-27 -12 -55 -24.5t-68 -23.5q-41 -12 -73 -18t-81 -6q-93 0 -177 28t-146 84q-63 58 -99 142t-36 201q0 111 35.5 195t98.5 144q61 58 145.5 88.5t178.5 30.5q75 0 146 -20.5t131 -50.5v-204h-20q-20 15 -42.5 30.5t-58.5 33.5q-31 15 -71 26t-81 11q-106 0 -163.5 -72.5
t-57.5 -211.5q0 -136 58.5 -208.5t162.5 -72.5q46 0 87 11.5t70 26.5q34 18 57 34t39 29h20v-203z" />
    <glyph glyph-name="ordfeminine" unicode="&#xaa;" horiz-adv-x="1040" 
d="M913 596h-278v95q-30 -25 -52 -43.5t-61 -37.5q-38 -19 -73.5 -28.5t-99.5 -9.5q-116 0 -196.5 79t-80.5 203q0 103 39.5 162.5t115.5 96.5q73 35 176 50.5t233 23.5v4q0 75 -55 103.5t-164 28.5q-67 0 -141 -25.5t-105 -38.5h-24v216q42 12 135 28.5t187 16.5
q223 0 333.5 -74t110.5 -239v-611zM635 831v187q-52 -5 -111 -13.5t-91 -19.5q-37 -13 -57.5 -39t-20.5 -69q0 -62 32 -86t103 -24q38 0 77 17.5t68 46.5z" />
    <glyph glyph-name="guillemotleft" unicode="&#xab;" horiz-adv-x="1440" 
d="M1258 148l-560 446v129l560 445v-296l-281 -214l281 -214v-296zM688 148l-560 446v129l560 445v-296l-281 -214l281 -214v-296z" />
    <glyph glyph-name="logicalnot" unicode="&#xac;" horiz-adv-x="1676" 
d="M1472 50h-274v508h-1004v258h1278v-766z" />
    <glyph glyph-name="registered" unicode="&#xae;" horiz-adv-x="1902" 
d="M1816 655q0 -358 -253.5 -611.5t-611.5 -253.5t-611.5 253.5t-253.5 611.5t253.5 611.5t611.5 253.5t611.5 -253.5t253.5 -611.5zM1625 655q0 279 -197.5 479t-476.5 200t-476.5 -200t-197.5 -479t197.5 -479t476.5 -200t476.5 200t197.5 479zM1419 245h-261l-251 316
h-82v-316h-204v861h314q87 0 140 -7t105 -36q58 -34 84 -80t26 -117q0 -96 -51.5 -156t-132.5 -94zM1063 850q0 27 -11 49.5t-37 36.5q-23 13 -52 17t-74 4h-64v-243h49q46 0 85 7.5t61 25.5q22 16 32.5 41t10.5 62z" />
    <glyph glyph-name="overscore" unicode="&#xaf;" horiz-adv-x="1304" 
d="M1320 1632h-1336v201h1336v-201z" />
    <glyph glyph-name="degree" unicode="&#xb0;" horiz-adv-x="1064" 
d="M938 1117q0 -170 -118 -286.5t-288 -116.5t-288 116.5t-118 286.5t118 286.5t288 116.5q171 0 288.5 -116.5t117.5 -286.5zM719 1117q0 79 -53.5 135t-133.5 56q-79 0 -133 -55.5t-54 -135.5q0 -82 54.5 -136.5t132.5 -54.5q80 0 133.5 55.5t53.5 135.5z" />
    <glyph glyph-name="plusminus" unicode="&#xb1;" horiz-adv-x="1676" 
d="M1482 0h-1288v258h513v400h-513v258h512v508h264v-508h512v-258h-513v-400h513v-258z" />
    <glyph glyph-name="twosuperior" unicode="&#xb2;" horiz-adv-x="1104" 
d="M968 566h-791v189q70 43 141 89.5t124 88.5q104 83 134 134.5t30 111.5q0 58 -40.5 90t-116.5 32q-70 0 -138 -29.5t-105 -50.5h-23v237q70 24 156.5 42.5t188.5 18.5q184 0 281 -74t97 -212q0 -87 -38 -161t-148 -173q-34 -30 -74 -59.5t-92 -67.5h414v-206z" />
    <glyph glyph-name="threesuperior" unicode="&#xb3;" horiz-adv-x="1104" 
d="M943 828q0 -134 -102.5 -210t-319.5 -76q-128 0 -211 17.5t-139 40.5v216h22q37 -21 116 -45.5t154 -24.5q103 0 148.5 24t45.5 78q0 48 -32 70t-125 22h-150v195h135q82 0 115 23.5t33 69.5t-41 66.5t-128 20.5q-64 0 -140 -24t-116 -46h-22v213q64 23 149.5 42
t203.5 19q184 0 282.5 -61.5t98.5 -176.5q0 -90 -48 -145.5t-122 -80.5v-8q80 -16 136.5 -70.5t56.5 -148.5z" />
    <glyph glyph-name="acute" unicode="&#xb4;" horiz-adv-x="1118" 
d="M879 1676l-300 -393h-238l207 393h331z" />
    <glyph glyph-name="mu1" unicode="&#xb5;" horiz-adv-x="1333" 
d="M1199 0h-309l-16 72h-7q-48 -41 -90 -64t-108 -23q-57 0 -104.5 24t-80.5 55v-476h-350v1535h350v-811q43 -33 90.5 -48.5t91.5 -15.5q40 0 89 14.5t94 49.5v811h350v-1123z" />
    <glyph glyph-name="paragraph" unicode="&#xb6;" horiz-adv-x="1304" 
d="M1173 -363h-200v1672h-145v-1672h-210v956q-273 6 -412.5 125.5t-139.5 330.5q0 100 34 177.5t107 138.5q70 58 180.5 91t253.5 33h532v-1852z" />
    <glyph glyph-name="middot" unicode="&#xb7;" horiz-adv-x="744" 
d="M549 730h-354v393h354v-393z" />
    <glyph glyph-name="cedilla" unicode="&#xb8;" horiz-adv-x="1118" 
d="M830 20q1 -18 3 -49.5t2 -56.5q0 -162 -95.5 -249.5t-249.5 -87.5q-36 0 -102.5 7t-100.5 17v200h19q24 -11 68 -23t84 -12q71 0 116.5 39t45.5 121q0 31 -1 55.5t-1 38.5h212z" />
    <glyph glyph-name="onesuperior" unicode="&#xb9;" horiz-adv-x="1104" 
d="M917 566h-681v188h211v426h-219v178q113 0 179.5 30t74.5 105h234v-739h201v-188z" />
    <glyph glyph-name="ordmasculine" unicode="&#xba;" horiz-adv-x="1104" 
d="M1027 1043q0 -221 -121.5 -349t-342.5 -128q-224 0 -344 130t-120 347q0 222 122 349.5t342 127.5q222 0 343 -127t121 -350zM689 824q29 39 40 92t11 125q0 146 -45 212.5t-132 66.5q-37 0 -67.5 -11.5t-56.5 -44.5q-24 -31 -38.5 -85.5t-14.5 -137.5q0 -140 44 -207
t135 -67q35 0 68.5 13t55.5 44z" />
    <glyph glyph-name="guillemotright" unicode="&#xbb;" horiz-adv-x="1440" 
d="M1312 594l-560 -446v296l281 214l-281 214v296l560 -445v-129zM742 594l-560 -446v296l281 214l-281 214v296l560 -445v-129z" />
    <glyph glyph-name="onequarter" unicode="&#xbc;" horiz-adv-x="2310" 
d="M659 559h-272v607h-224v182q115 0 183 35.5t76 109.5h237v-934zM1633 1498l-785 -1498h-264l785 1498h264zM2178 197h-163v-197h-258v197h-465v261l450 486h273v-561h163v-186zM1761 383v335l-320 -335h320z" />
    <glyph glyph-name="onehalf" unicode="&#xbd;" horiz-adv-x="2310" 
d="M639 559h-272v607h-224v182q115 0 183 35.5t76 109.5h237v-934zM1603 1498l-785 -1498h-264l785 1498h264zM2217 0h-791v189q70 43 141.5 90t123.5 88q104 83 134 134.5t30 111.5q0 58 -40.5 90t-116.5 32q-70 0 -138 -29.5t-105 -50.5h-23v237q70 24 156.5 42.5
t188.5 18.5q184 0 281 -74t97 -212q0 -87 -38 -161t-148 -173q-34 -30 -74 -59.5t-92 -67.5h414v-206z" />
    <glyph glyph-name="threequarters" unicode="&#xbe;" horiz-adv-x="2310" 
d="M913 828q0 -134 -102.5 -210t-319.5 -76q-128 0 -211 17.5t-139 40.5v216h22q37 -21 116 -45.5t154 -24.5q103 0 148.5 24t45.5 78q0 48 -32 70t-125 22h-150v195h135q82 0 115 23.5t33 69.5t-41 66.5t-128 20.5q-64 0 -140 -24t-116 -46h-22v213q64 23 149.5 42
t203.5 19q184 0 282.5 -61.5t98.5 -176.5q0 -90 -48 -145.5t-122 -80.5v-8q80 -16 136.5 -70.5t56.5 -148.5zM1743 1498l-785 -1498h-264l785 1498h264zM2258 197h-163v-197h-258v197h-465v261l450 486h273v-561h163v-186zM1841 383v335l-320 -335h320z" />
    <glyph glyph-name="questiondown" unicode="&#xbf;" horiz-adv-x="1160" 
d="M849 1225h-394v264h394v-264zM1049 56q-64 -28 -187 -57t-264 -29q-126 0 -222.5 29.5t-164.5 82.5q-66 52 -100.5 124t-34.5 157q0 99 29.5 177.5t83.5 136.5q53 57 127.5 102t166.5 82v228h342v-335q-56 -15 -124 -41.5t-121 -63.5q-55 -39 -90 -91t-35 -123
q0 -99 63 -144t175 -45q84 0 178.5 37t148.5 74h29v-301z" />
    <glyph glyph-name="Agrave" unicode="&#xc0;" horiz-adv-x="1402" 
d="M-6 0l503 1489h408l503 -1489h-385l-93 304h-468l-93 -304h-375zM848 574l-152 491l-152 -491h304zM917 1656h-238l-300 393h331z" />
    <glyph glyph-name="Aacute" unicode="&#xc1;" horiz-adv-x="1402" 
d="M-6 0l503 1489h408l503 -1489h-385l-93 304h-468l-93 -304h-375zM848 574l-152 491l-152 -491h304zM1011 2049l-300 -393h-238l207 393h331z" />
    <glyph glyph-name="Acircumflex" unicode="&#xc2;" horiz-adv-x="1402" 
d="M-6 0l503 1489h408l503 -1489h-385l-93 304h-468l-93 -304h-375zM848 574l-152 491l-152 -491h304zM1119 1646h-259l-165 213l-164 -213h-255l301 393h241z" />
    <glyph glyph-name="Atilde" unicode="&#xc3;" horiz-adv-x="1402" 
d="M-6 0l503 1489h408l503 -1489h-385l-93 304h-468l-93 -304h-375zM848 574l-152 491l-152 -491h304zM1139 1976q-10 -167 -83 -244.5t-203 -77.5q-48 0 -91 19.5t-74 38.5q-30 19 -66.5 38.5t-61.5 19.5q-50 0 -68 -31.5t-22 -90.5h-210q6 146 82 233.5t203 87.5
q48 0 89 -17t79 -39q30 -17 66 -36t59 -19q48 0 68.5 32t22.5 86h210z" />
    <glyph glyph-name="Adieresis" unicode="&#xc4;" horiz-adv-x="1402" 
d="M-6 0l503 1489h408l503 -1489h-385l-93 304h-468l-93 -304h-375zM848 574l-152 491l-152 -491h304zM1076 1656h-287v273h287v-273zM595 1656h-287v273h287v-273z" />
    <glyph glyph-name="Aring" unicode="&#xc5;" horiz-adv-x="1402" 
d="M1408 0h-385l-93 304h-468l-93 -304h-375l479 1412q-44 41 -71 96t-27 118q0 127 97.5 218t229.5 91t229.5 -91t97.5 -218q0 -61 -27 -118t-72 -98zM838 1635q0 63 -38.5 104t-97.5 41t-97.5 -41t-38.5 -104t38 -104.5t98 -41.5t98 42t38 104zM848 574l-152 491
l-152 -491h304z" />
    <glyph glyph-name="AE" unicode="&#xc6;" horiz-adv-x="2025" 
d="M1925 0h-1007v404h-412l-139 -404h-385l550 1489h1393v-284h-635v-261h585v-284h-585v-376h635v-284zM918 684v535h-122l-190 -535h312z" />
    <glyph glyph-name="Ccedilla" unicode="&#xc7;" horiz-adv-x="1367" 
d="M796 -27q-337 0 -533 201.5t-196 568.5q0 359 197.5 567t532.5 208q89 0 160 -10t136 -28q51 -14 111 -40.5t97 -45.5v-355h-38q-27 24 -68 57.5t-93 65.5t-114.5 54.5t-130.5 22.5q-81 0 -148.5 -25.5t-128.5 -88.5q-56 -57 -91.5 -154t-35.5 -229q0 -139 37 -233.5
t97 -152.5q58 -56 129.5 -81t142.5 -25q74 0 141 24.5t113 54.5q50 31 88 63t66 57h34v-350q-56 -26 -123.5 -55t-146.5 -46q0 -16 1.5 -41t1.5 -43q0 -162 -95.5 -249.5t-249.5 -87.5q-36 0 -102.5 7t-100.5 17v200h19q24 -11 68 -23t84 -12q76 0 118.5 40t42.5 124v43h-22
z" />
    <glyph glyph-name="Egrave" unicode="&#xc8;" horiz-adv-x="1260" 
d="M154 0v1489h1007v-284h-635v-261h585v-284h-585v-376h635v-284h-1007zM891 1656h-238l-300 393h331z" />
    <glyph glyph-name="Eacute" unicode="&#xc9;" horiz-adv-x="1260" 
d="M154 0v1489h1007v-284h-635v-261h585v-284h-585v-376h635v-284h-1007zM1008 2049l-300 -393h-238l207 393h331z" />
    <glyph glyph-name="Ecircumflex" unicode="&#xca;" horiz-adv-x="1260" 
d="M154 0v1489h1007v-284h-635v-261h585v-284h-585v-376h635v-284h-1007zM1041 1656h-259l-165 213l-164 -213h-255l301 393h241z" />
    <glyph glyph-name="Edieresis" unicode="&#xcb;" horiz-adv-x="1260" 
d="M154 0v1489h1007v-284h-635v-261h585v-284h-585v-376h635v-284h-1007zM1043 1656h-287v273h287v-273zM562 1656h-287v273h287v-273z" />
    <glyph glyph-name="Igrave" unicode="&#xcc;" horiz-adv-x="990" 
d="M896 0h-802v260h214v969h-214v260h802v-260h-214v-969h214v-260zM681 1656h-238l-300 393h331z" />
    <glyph glyph-name="Iacute" unicode="&#xcd;" horiz-adv-x="990" 
d="M896 0h-802v260h214v969h-214v260h802v-260h-214v-969h214v-260zM857 2049l-300 -393h-238l207 393h331z" />
    <glyph glyph-name="Icircumflex" unicode="&#xce;" horiz-adv-x="990" 
d="M896 0h-802v260h214v969h-214v260h802v-260h-214v-969h214v-260zM919 1656h-259l-165 213l-164 -213h-255l301 393h241z" />
    <glyph glyph-name="Idieresis" unicode="&#xcf;" horiz-adv-x="990" 
d="M896 0h-802v260h214v969h-214v260h802v-260h-214v-969h214v-260zM879 1656h-287v273h287v-273zM398 1656h-287v273h287v-273z" />
    <glyph glyph-name="Eth" unicode="&#xd0;" horiz-adv-x="1585" 
d="M1518 743q0 -208 -91 -372.5t-230 -252.5q-117 -74 -253 -96t-290 -22h-465v681h-171v229h171v579h461q157 0 294 -20t257 -97q147 -94 232 -253.5t85 -375.5zM1134 746q0 147 -50.5 251.5t-155.5 163.5q-74 42 -158.5 46t-200.5 4h-8v-301h320v-229h-320v-402h8
q126 0 212.5 4.5t164.5 53.5q92 58 140 160t48 249z" />
    <glyph glyph-name="Ntilde" unicode="&#xd1;" horiz-adv-x="1578" 
d="M1430 0h-360l-574 1038v-1038h-342v1489h459l475 -853v853h342v-1489zM1251 1986q-10 -167 -83 -244.5t-203 -77.5q-48 0 -91 19.5t-74 38.5q-30 19 -66.5 38.5t-61.5 19.5q-50 0 -68 -31.5t-22 -90.5h-210q6 146 82 233.5t203 87.5q48 0 89 -17t79 -39q30 -17 66 -36
t59 -19q48 0 68.5 32t22.5 86h210z" />
    <glyph glyph-name="Ograve" unicode="&#xd2;" horiz-adv-x="1577" 
d="M1510 744q0 -361 -193 -568t-529 -207q-337 0 -529 209.5t-192 565.5q0 359 192 567.5t529 208.5q336 0 529 -207.5t193 -568.5zM1124 745q0 133 -27.5 226.5t-73.5 153.5q-48 61 -108.5 87.5t-125.5 26.5q-69 0 -125 -24.5t-108 -87.5q-46 -58 -74.5 -154t-28.5 -229
q0 -137 27 -227.5t74 -151.5q48 -62 109 -88.5t126 -26.5q66 0 128 28.5t107 88.5q48 65 74 151.5t26 226.5zM1025 1656h-238l-300 393h331z" />
    <glyph glyph-name="Oacute" unicode="&#xd3;" horiz-adv-x="1577" 
d="M1510 744q0 -361 -193 -568t-529 -207q-337 0 -529 209.5t-192 565.5q0 359 192 567.5t529 208.5q336 0 529 -207.5t193 -568.5zM1124 745q0 133 -27.5 226.5t-73.5 153.5q-48 61 -108.5 87.5t-125.5 26.5q-69 0 -125 -24.5t-108 -87.5q-46 -58 -74.5 -154t-28.5 -229
q0 -137 27 -227.5t74 -151.5q48 -62 109 -88.5t126 -26.5q66 0 128 28.5t107 88.5q48 65 74 151.5t26 226.5zM1096 2049l-300 -393h-238l207 393h331z" />
    <glyph glyph-name="Ocircumflex" unicode="&#xd4;" horiz-adv-x="1577" 
d="M1510 744q0 -361 -193 -568t-529 -207q-337 0 -529 209.5t-192 565.5q0 359 192 567.5t529 208.5q336 0 529 -207.5t193 -568.5zM1124 745q0 133 -27.5 226.5t-73.5 153.5q-48 61 -108.5 87.5t-125.5 26.5q-69 0 -125 -24.5t-108 -87.5q-46 -58 -74.5 -154t-28.5 -229
q0 -137 27 -227.5t74 -151.5q48 -62 109 -88.5t126 -26.5q66 0 128 28.5t107 88.5q48 65 74 151.5t26 226.5zM1216 1656h-259l-165 213l-164 -213h-255l301 393h241z" />
    <glyph glyph-name="Otilde" unicode="&#xd5;" horiz-adv-x="1577" 
d="M1510 744q0 -361 -193 -568t-529 -207q-337 0 -529 209.5t-192 565.5q0 359 192 567.5t529 208.5q336 0 529 -207.5t193 -568.5zM1124 745q0 133 -27.5 226.5t-73.5 153.5q-48 61 -108.5 87.5t-125.5 26.5q-69 0 -125 -24.5t-108 -87.5q-46 -58 -74.5 -154t-28.5 -229
q0 -137 27 -227.5t74 -151.5q48 -62 109 -88.5t126 -26.5q66 0 128 28.5t107 88.5q48 65 74 151.5t26 226.5zM1219 1986q-10 -167 -83 -244.5t-203 -77.5q-48 0 -91 19.5t-74 38.5q-30 19 -66.5 38.5t-61.5 19.5q-50 0 -68 -31.5t-22 -90.5h-210q6 146 82 233.5t203 87.5
q48 0 89 -17t79 -39q30 -17 66 -36t59 -19q48 0 68.5 32t22.5 86h210z" />
    <glyph glyph-name="Odieresis" unicode="&#xd6;" horiz-adv-x="1577" 
d="M1510 744q0 -361 -193 -568t-529 -207q-337 0 -529 209.5t-192 565.5q0 359 192 567.5t529 208.5q336 0 529 -207.5t193 -568.5zM1124 745q0 133 -27.5 226.5t-73.5 153.5q-48 61 -108.5 87.5t-125.5 26.5q-69 0 -125 -24.5t-108 -87.5q-46 -58 -74.5 -154t-28.5 -229
q0 -137 27 -227.5t74 -151.5q48 -62 109 -88.5t126 -26.5q66 0 128 28.5t107 88.5q48 65 74 151.5t26 226.5zM1172 1656h-287v273h287v-273zM691 1656h-287v273h287v-273z" />
    <glyph glyph-name="multiply" unicode="&#xd7;" horiz-adv-x="1676" 
d="M1442 235l-180 -180l-422 423l-417 -418l-180 180l418 417l-423 422l180 180l422 -423l417 418l180 -180l-418 -417z" />
    <glyph glyph-name="Oslash" unicode="&#xd8;" horiz-adv-x="1577" 
d="M1510 744q0 -168 -46.5 -313t-138.5 -247q-96 -106 -231.5 -160.5t-305.5 -54.5q-98 0 -189.5 22t-168.5 63l-119 -180h-207l186 281q-106 102 -164.5 251.5t-58.5 337.5q0 359 192 567.5t529 208.5q97 0 185.5 -20.5t168.5 -61.5l102 154h210l-170 -256
q109 -104 167.5 -253.5t58.5 -338.5zM973 1183q-39 31 -88 46t-96 15q-70 0 -127.5 -25t-109.5 -88q-48 -59 -77 -155.5t-29 -231.5q0 -90 12 -163.5t35 -130.5zM1028 363q48 64 75.5 155t27.5 227q0 82 -13.5 164.5t-35.5 133.5l-482 -734q43 -34 89.5 -49.5t99.5 -15.5
q66 0 130.5 30.5t108.5 88.5z" />
    <glyph glyph-name="Ugrave" unicode="&#xd9;" horiz-adv-x="1513" 
d="M756 -31q-300 0 -461.5 145t-161.5 424v951h374v-929q0 -155 58.5 -231t190.5 -76q129 0 189.5 73t60.5 234v929h374v-950q0 -275 -157.5 -422.5t-466.5 -147.5zM949 1656h-238l-300 393h331z" />
    <glyph glyph-name="Uacute" unicode="&#xda;" horiz-adv-x="1513" 
d="M756 -31q-300 0 -461.5 145t-161.5 424v951h374v-929q0 -155 58.5 -231t190.5 -76q129 0 189.5 73t60.5 234v929h374v-950q0 -275 -157.5 -422.5t-466.5 -147.5zM1087 2049l-300 -393h-238l207 393h331z" />
    <glyph glyph-name="Ucircumflex" unicode="&#xdb;" horiz-adv-x="1513" 
d="M756 -31q-300 0 -461.5 145t-161.5 424v951h374v-929q0 -155 58.5 -231t190.5 -76q129 0 189.5 73t60.5 234v929h374v-950q0 -275 -157.5 -422.5t-466.5 -147.5zM1166 1656h-259l-165 213l-164 -213h-255l301 393h241z" />
    <glyph glyph-name="Udieresis" unicode="&#xdc;" horiz-adv-x="1513" 
d="M756 -31q-300 0 -461.5 145t-161.5 424v951h374v-929q0 -155 58.5 -231t190.5 -76q129 0 189.5 73t60.5 234v929h374v-950q0 -275 -157.5 -422.5t-466.5 -147.5zM1131 1656h-287v273h287v-273zM650 1656h-287v273h287v-273z" />
    <glyph glyph-name="Yacute" unicode="&#xdd;" horiz-adv-x="1373" 
d="M1392 1489l-514 -867v-622h-374v603l-523 886h426l292 -532l281 532h412zM1079 2039l-300 -393h-238l207 393h331z" />
    <glyph glyph-name="Thorn" unicode="&#xde;" horiz-adv-x="1350" 
d="M1300 794q0 -104 -33 -198t-95 -157q-90 -91 -199.5 -134t-248.5 -43h-196v-262h-374v1489h374v-225h204q129 0 222.5 -23.5t169.5 -74.5q84 -56 130 -149.5t46 -222.5zM916 785q0 63 -30 108.5t-72 62.5q-53 23 -101.5 26.5t-131.5 3.5h-53v-446h26q53 0 100 1t82 7
q30 5 63.5 19.5t51.5 32.5q38 37 51.5 77t13.5 108z" />
    <glyph glyph-name="germandbls" unicode="&#xdf;" horiz-adv-x="1322" 
d="M1268 468q0 -236 -141.5 -359t-384.5 -123q-26 0 -70 4.5t-75 9.5v272h25q15 -5 45.5 -11.5t57.5 -6.5q81 0 134.5 61t53.5 174t-70 160.5t-217 47.5v267q94 0 144.5 48.5t50.5 151.5q0 78 -39 120t-119 42q-94 0 -136.5 -63.5t-42.5 -176.5v-1086h-350v1056
q0 243 142 376.5t390 133.5q125 0 219.5 -28t157.5 -78q58 -47 89.5 -111.5t31.5 -138.5q0 -135 -81 -230t-198 -112v-9q175 -26 279 -130t104 -261z" />
    <glyph glyph-name="agrave" unicode="&#xe0;" horiz-adv-x="1226" 
d="M753 293v234q-89 -9 -144 -15.5t-108 -25.5q-46 -16 -71.5 -48.5t-25.5 -86.5q0 -79 42.5 -108.5t125.5 -29.5q46 0 94 21t87 59zM753 119q-36 -30 -64.5 -54t-76.5 -48q-47 -23 -91.5 -35t-124.5 -12q-149 0 -247.5 100t-98.5 252q0 125 50 202t144 122q95 46 227 64
t284 28v6q0 93 -68.5 128.5t-205.5 35.5q-62 0 -145 -22.5t-162 -57.5h-30v271q52 15 168 35.5t234 20.5q290 0 422.5 -96.5t132.5 -294.5v-764h-348v119zM815 1283h-238l-300 393h331z" />
    <glyph glyph-name="aacute" unicode="&#xe1;" horiz-adv-x="1226" 
d="M753 293v234q-89 -9 -144 -15.5t-108 -25.5q-46 -16 -71.5 -48.5t-25.5 -86.5q0 -79 42.5 -108.5t125.5 -29.5q46 0 94 21t87 59zM753 119q-36 -30 -64.5 -54t-76.5 -48q-47 -23 -91.5 -35t-124.5 -12q-149 0 -247.5 100t-98.5 252q0 125 50 202t144 122q95 46 227 64
t284 28v6q0 93 -68.5 128.5t-205.5 35.5q-62 0 -145 -22.5t-162 -57.5h-30v271q52 15 168 35.5t234 20.5q290 0 422.5 -96.5t132.5 -294.5v-764h-348v119zM923 1676l-300 -393h-238l207 393h331z" />
    <glyph glyph-name="acircumflex" unicode="&#xe2;" horiz-adv-x="1226" 
d="M753 293v234q-89 -9 -144 -15.5t-108 -25.5q-46 -16 -71.5 -48.5t-25.5 -86.5q0 -79 42.5 -108.5t125.5 -29.5q46 0 94 21t87 59zM753 119q-36 -30 -64.5 -54t-76.5 -48q-47 -23 -91.5 -35t-124.5 -12q-149 0 -247.5 100t-98.5 252q0 125 50 202t144 122q95 46 227 64
t284 28v6q0 93 -68.5 128.5t-205.5 35.5q-62 0 -145 -22.5t-162 -57.5h-30v271q52 15 168 35.5t234 20.5q290 0 422.5 -96.5t132.5 -294.5v-764h-348v119zM1001 1283h-259l-165 213l-164 -213h-255l301 393h241z" />
    <glyph glyph-name="atilde" unicode="&#xe3;" horiz-adv-x="1226" 
d="M753 293v234q-89 -9 -144 -15.5t-108 -25.5q-46 -16 -71.5 -48.5t-25.5 -86.5q0 -79 42.5 -108.5t125.5 -29.5q46 0 94 21t87 59zM753 119q-36 -30 -64.5 -54t-76.5 -48q-47 -23 -91.5 -35t-124.5 -12q-149 0 -247.5 100t-98.5 252q0 125 50 202t144 122q95 46 227 64
t284 28v6q0 93 -68.5 128.5t-205.5 35.5q-62 0 -145 -22.5t-162 -57.5h-30v271q52 15 168 35.5t234 20.5q290 0 422.5 -96.5t132.5 -294.5v-764h-348v119zM1040 1613q-10 -167 -83 -244.5t-203 -77.5q-48 0 -91 19.5t-74 38.5q-30 19 -66.5 38.5t-61.5 19.5q-50 0 -68 -31.5
t-22 -90.5h-210q6 146 82 233.5t203 87.5q48 0 89 -17t79 -39q30 -17 66 -36t59 -19q48 0 68.5 32t22.5 86h210z" />
    <glyph glyph-name="adieresis" unicode="&#xe4;" horiz-adv-x="1226" 
d="M753 293v234q-89 -9 -144 -15.5t-108 -25.5q-46 -16 -71.5 -48.5t-25.5 -86.5q0 -79 42.5 -108.5t125.5 -29.5q46 0 94 21t87 59zM753 119q-36 -30 -64.5 -54t-76.5 -48q-47 -23 -91.5 -35t-124.5 -12q-149 0 -247.5 100t-98.5 252q0 125 50 202t144 122q95 46 227 64
t284 28v6q0 93 -68.5 128.5t-205.5 35.5q-62 0 -145 -22.5t-162 -57.5h-30v271q52 15 168 35.5t234 20.5q290 0 422.5 -96.5t132.5 -294.5v-764h-348v119zM967 1283h-287v273h287v-273zM486 1283h-287v273h287v-273z" />
    <glyph glyph-name="aring" unicode="&#xe5;" horiz-adv-x="1226" 
d="M753 293v234q-89 -9 -144 -15.5t-108 -25.5q-46 -16 -71.5 -48.5t-25.5 -86.5q0 -79 42.5 -108.5t125.5 -29.5q46 0 94 21t87 59zM753 119q-36 -30 -64.5 -54t-76.5 -48q-47 -23 -91.5 -35t-124.5 -12q-149 0 -247.5 100t-98.5 252q0 125 50 202t144 122q95 46 227 64
t284 28v6q0 93 -68.5 128.5t-205.5 35.5q-62 0 -145 -22.5t-162 -57.5h-30v271q50 15 131.5 30.5t182.5 22.5q-66 38 -107 106.5t-41 152.5q0 128 90 214.5t218 86.5q129 0 218.5 -86t89.5 -215q0 -92 -48 -165t-126 -108q169 -25 259 -116t90 -258v-764h-348v119zM754 1410
q0 62 -38.5 105t-97.5 43t-97.5 -42.5t-38.5 -105.5t38 -104.5t98 -41.5t98 42t38 104z" />
    <glyph glyph-name="ae" unicode="&#xe6;" horiz-adv-x="1919" 
d="M802 310q-20 53 -29 104.5t-11 100.5q-79 -6 -139.5 -12.5t-113.5 -22.5q-48 -15 -76.5 -46t-28.5 -83q0 -71 39.5 -104.5t128.5 -33.5q69 0 131 29t99 68zM1450 223q61 0 120 13.5t108 35.5q43 19 79.5 41t59.5 39h37v-289q-43 -17 -78.5 -31.5t-97.5 -29.5
q-57 -15 -117.5 -23.5t-147.5 -8.5q-209 0 -314.5 39.5t-200.5 134.5q-33 -32 -75.5 -64.5t-92.5 -55.5q-55 -26 -111.5 -40t-137.5 -14q-212 0 -321.5 93t-109.5 259q0 124 51 199.5t143 119.5q91 43 220 61t291 26v16q0 93 -68.5 128.5t-205.5 35.5q-62 0 -145 -22.5
t-162 -57.5h-30v271q52 15 168 35.5t234 20.5q144 0 252 -36t178 -92q66 51 167.5 91t212.5 40q258 0 388 -139t130 -398v-126h-767q5 -78 33 -130.5t74 -83.5q45 -31 105 -44.5t131 -13.5zM1529 706q-3 111 -51.5 169t-148.5 58q-103 0 -160.5 -62t-62.5 -165h423z" />
    <glyph glyph-name="ccedilla" unicode="&#xe7;" horiz-adv-x="1080" 
d="M676 -28q-139 1 -252 36t-197 108q-83 72 -129 182.5t-46 258.5q0 161 51 274t138 186q84 70 197.5 103.5t236.5 33.5q93 0 186 -21.5t187 -68.5v-300h-45q-21 20 -51.5 44t-66.5 44q-38 21 -86 35.5t-107 14.5q-134 0 -207.5 -93.5t-73.5 -251.5q0 -169 78.5 -253
t208.5 -84q66 0 117 15.5t85 36.5q35 22 59 43.5t44 41.5h45v-300q-29 -12 -73.5 -30.5t-85.5 -29.5q0 -14 1 -36t1 -47q0 -162 -95.5 -249.5t-249.5 -87.5q-36 0 -102.5 7t-100.5 17v200h19q24 -11 68 -23t84 -12q76 0 119 40.5t43 119.5v20v26z" />
    <glyph glyph-name="egrave" unicode="&#xe8;" horiz-adv-x="1216" 
d="M709 -30q-318 0 -487.5 152t-169.5 433q0 275 158 439t442 164q258 0 388 -139t130 -398v-126h-767q5 -78 33 -130.5t74 -83.5q45 -31 105 -44.5t131 -13.5q61 0 120 13.5t108 35.5q43 19 79.5 41t59.5 39h37v-289q-43 -17 -78.5 -31.5t-97.5 -29.5q-57 -15 -117.5 -23.5
t-147.5 -8.5zM825 706q-3 111 -51.5 169t-148.5 58q-102 0 -159.5 -61t-63.5 -166h423zM849 1283h-238l-300 393h331z" />
    <glyph glyph-name="eacute" unicode="&#xe9;" horiz-adv-x="1216" 
d="M709 -30q-318 0 -487.5 152t-169.5 433q0 275 158 439t442 164q258 0 388 -139t130 -398v-126h-767q5 -78 33 -130.5t74 -83.5q45 -31 105 -44.5t131 -13.5q61 0 120 13.5t108 35.5q43 19 79.5 41t59.5 39h37v-289q-43 -17 -78.5 -31.5t-97.5 -29.5q-57 -15 -117.5 -23.5
t-147.5 -8.5zM825 706q-3 111 -51.5 169t-148.5 58q-102 0 -159.5 -61t-63.5 -166h423zM979 1676l-300 -393h-238l207 393h331z" />
    <glyph glyph-name="ecircumflex" unicode="&#xea;" horiz-adv-x="1216" 
d="M709 -30q-318 0 -487.5 152t-169.5 433q0 275 158 439t442 164q258 0 388 -139t130 -398v-126h-767q5 -78 33 -130.5t74 -83.5q45 -31 105 -44.5t131 -13.5q61 0 120 13.5t108 35.5q43 19 79.5 41t59.5 39h37v-289q-43 -17 -78.5 -31.5t-97.5 -29.5q-57 -15 -117.5 -23.5
t-147.5 -8.5zM825 706q-3 111 -51.5 169t-148.5 58q-102 0 -159.5 -61t-63.5 -166h423zM1062 1283h-259l-165 213l-164 -213h-255l301 393h241z" />
    <glyph glyph-name="edieresis" unicode="&#xeb;" horiz-adv-x="1216" 
d="M709 -30q-318 0 -487.5 152t-169.5 433q0 275 158 439t442 164q258 0 388 -139t130 -398v-126h-767q5 -78 33 -130.5t74 -83.5q45 -31 105 -44.5t131 -13.5q61 0 120 13.5t108 35.5q43 19 79.5 41t59.5 39h37v-289q-43 -17 -78.5 -31.5t-97.5 -29.5q-57 -15 -117.5 -23.5
t-147.5 -8.5zM825 706q-3 111 -51.5 169t-148.5 58q-102 0 -159.5 -61t-63.5 -166h423zM1024 1283h-287v273h287v-273zM543 1283h-287v273h287v-273z" />
    <glyph glyph-name="igrave" unicode="&#xec;" horiz-adv-x="618" 
d="M484 0h-350v1123h350v-1123zM539 1283h-238l-300 393h331z" />
    <glyph glyph-name="iacute" unicode="&#xed;" horiz-adv-x="618" 
d="M484 0h-350v1123h350v-1123zM634 1676l-300 -393h-238l207 393h331z" />
    <glyph glyph-name="icircumflex" unicode="&#xee;" horiz-adv-x="618" 
d="M484 0h-350v1123h350v-1123zM659 1283h-229l-125 213l-124 -213h-225l234 393h235z" />
    <glyph glyph-name="idieresis" unicode="&#xef;" horiz-adv-x="618" 
d="M484 0h-350v1123h350v-1123zM658 1283h-280v273h280v-273zM244 1283h-280v273h280v-273z" />
    <glyph glyph-name="eth" unicode="&#xf0;" horiz-adv-x="1269" 
d="M1131 1060q37 -85 59 -181.5t22 -213.5q0 -333 -150 -516.5t-435 -183.5q-260 0 -417.5 144.5t-157.5 407.5q0 120 41.5 215.5t117.5 165.5q72 65 169 99t203 34q70 0 129 -13t121 -45q-20 57 -66 126t-103 126l-319 -133l-79 174l249 100q-72 61 -141.5 105t-117.5 60
v25h430q10 -4 36 -22.5t73 -53.5l214 92l78 -173l-140 -59q62 -70 106.5 -137.5t77.5 -142.5zM795 302q30 48 46 119.5t16 185.5q0 25 -2.5 58.5t-4.5 46.5q-50 41 -100.5 59.5t-107.5 18.5q-113 0 -171 -69t-58 -198q0 -144 57 -225.5t167 -81.5q48 0 89.5 20.5t68.5 65.5z
" />
    <glyph glyph-name="ntilde" unicode="&#xf1;" horiz-adv-x="1311" 
d="M1186 0h-352v557q0 68 -5.5 135.5t-20.5 99.5q-18 38 -52 54.5t-91 16.5q-43 0 -87 -16t-94 -51v-796h-350v1123h350v-124q86 73 167.5 114t180.5 41q172 0 263 -108.5t91 -314.5v-731zM1108 1613q-10 -167 -83 -244.5t-203 -77.5q-48 0 -91 19.5t-74 38.5
q-30 19 -66.5 38.5t-61.5 19.5q-50 0 -68 -31.5t-22 -90.5h-210q6 146 82 233.5t203 87.5q48 0 89 -17t79 -39q30 -17 66 -36t59 -19q48 0 68.5 32t22.5 86h210z" />
    <glyph glyph-name="ograve" unicode="&#xf2;" horiz-adv-x="1264" 
d="M1212 561q0 -277 -151.5 -436.5t-428.5 -159.5q-275 0 -427.5 159.5t-152.5 436.5q0 280 152.5 438.5t427.5 158.5q276 0 428 -159.5t152 -437.5zM853 559q0 100 -16.5 166.5t-45.5 106.5q-31 42 -70 58.5t-89 16.5q-47 0 -85 -14.5t-70 -55.5q-30 -39 -48 -107t-18 -171
t17 -166.5t44 -101.5q28 -39 70 -57t93 -18q42 0 85.5 18t69.5 54q31 43 47 103.5t16 167.5zM839 1283h-238l-300 393h331z" />
    <glyph glyph-name="oacute" unicode="&#xf3;" horiz-adv-x="1264" 
d="M1212 561q0 -277 -151.5 -436.5t-428.5 -159.5q-275 0 -427.5 159.5t-152.5 436.5q0 280 152.5 438.5t427.5 158.5q276 0 428 -159.5t152 -437.5zM853 559q0 100 -16.5 166.5t-45.5 106.5q-31 42 -70 58.5t-89 16.5q-47 0 -85 -14.5t-70 -55.5q-30 -39 -48 -107t-18 -171
t17 -166.5t44 -101.5q28 -39 70 -57t93 -18q42 0 85.5 18t69.5 54q31 43 47 103.5t16 167.5zM977 1676l-300 -393h-238l207 393h331z" />
    <glyph glyph-name="ocircumflex" unicode="&#xf4;" horiz-adv-x="1264" 
d="M1212 561q0 -277 -151.5 -436.5t-428.5 -159.5q-275 0 -427.5 159.5t-152.5 436.5q0 280 152.5 438.5t427.5 158.5q276 0 428 -159.5t152 -437.5zM853 559q0 100 -16.5 166.5t-45.5 106.5q-31 42 -70 58.5t-89 16.5q-47 0 -85 -14.5t-70 -55.5q-30 -39 -48 -107t-18 -171
t17 -166.5t44 -101.5q28 -39 70 -57t93 -18q42 0 85.5 18t69.5 54q31 43 47 103.5t16 167.5zM1064 1283h-259l-165 213l-164 -213h-255l301 393h241z" />
    <glyph glyph-name="otilde" unicode="&#xf5;" horiz-adv-x="1264" 
d="M1212 561q0 -277 -151.5 -436.5t-428.5 -159.5q-275 0 -427.5 159.5t-152.5 436.5q0 280 152.5 438.5t427.5 158.5q276 0 428 -159.5t152 -437.5zM853 559q0 100 -16.5 166.5t-45.5 106.5q-31 42 -70 58.5t-89 16.5q-47 0 -85 -14.5t-70 -55.5q-30 -39 -48 -107t-18 -171
t17 -166.5t44 -101.5q28 -39 70 -57t93 -18q42 0 85.5 18t69.5 54q31 43 47 103.5t16 167.5zM1070 1613q-10 -167 -83 -244.5t-203 -77.5q-48 0 -91 19.5t-74 38.5q-30 19 -66.5 38.5t-61.5 19.5q-50 0 -68 -31.5t-22 -90.5h-210q6 146 82 233.5t203 87.5q48 0 89 -17
t79 -39q30 -17 66 -36t59 -19q48 0 68.5 32t22.5 86h210z" />
    <glyph glyph-name="odieresis" unicode="&#xf6;" horiz-adv-x="1264" 
d="M1212 561q0 -277 -151.5 -436.5t-428.5 -159.5q-275 0 -427.5 159.5t-152.5 436.5q0 280 152.5 438.5t427.5 158.5q276 0 428 -159.5t152 -437.5zM853 559q0 100 -16.5 166.5t-45.5 106.5q-31 42 -70 58.5t-89 16.5q-47 0 -85 -14.5t-70 -55.5q-30 -39 -48 -107t-18 -171
t17 -166.5t44 -101.5q28 -39 70 -57t93 -18q42 0 85.5 18t69.5 54q31 43 47 103.5t16 167.5zM1017 1283h-287v273h287v-273zM536 1283h-287v273h287v-273z" />
    <glyph glyph-name="divide" unicode="&#xf7;" horiz-adv-x="1676" 
d="M992 984h-308v330h308v-330zM1482 528h-1288v258h1288v-258zM992 0h-308v330h308v-330z" />
    <glyph glyph-name="oslash" unicode="&#xf8;" horiz-adv-x="1264" 
d="M1212 561q0 -277 -151.5 -436.5t-428.5 -159.5q-75 0 -145.5 16.5t-126.5 41.5l-121 -185h-174l172 260q-90 77 -137.5 196.5t-47.5 266.5q0 280 152.5 438.5t427.5 158.5q80 0 146.5 -16t125.5 -42l101 153h175l-153 -228q91 -79 138 -192.5t47 -271.5zM755 877
q-26 19 -57 27.5t-66 8.5q-48 0 -86.5 -14.5t-72.5 -56.5q-30 -37 -49 -109.5t-19 -173.5q0 -60 6 -107.5t14 -81.5zM794 283q33 45 49 112.5t16 163.5q0 51 -6 105.5t-14 85.5l-329 -505q26 -18 56 -26.5t69 -8.5q43 0 87 17.5t72 55.5z" />
    <glyph glyph-name="ugrave" unicode="&#xf9;" horiz-adv-x="1311" 
d="M1177 0h-350v124q-91 -76 -167 -115.5t-181 -39.5q-167 0 -260.5 105.5t-93.5 317.5v731h352v-557q0 -87 4.5 -142t21.5 -93q16 -35 49.5 -53t93.5 -18q37 0 87.5 18t93.5 49v796h350v-1123zM873 1283h-238l-300 393h331z" />
    <glyph glyph-name="uacute" unicode="&#xfa;" horiz-adv-x="1311" 
d="M1177 0h-350v124q-91 -76 -167 -115.5t-181 -39.5q-167 0 -260.5 105.5t-93.5 317.5v731h352v-557q0 -87 4.5 -142t21.5 -93q16 -35 49.5 -53t93.5 -18q37 0 87.5 18t93.5 49v796h350v-1123zM971 1676l-300 -393h-238l207 393h331z" />
    <glyph glyph-name="ucircumflex" unicode="&#xfb;" horiz-adv-x="1311" 
d="M1177 0h-350v124q-91 -76 -167 -115.5t-181 -39.5q-167 0 -260.5 105.5t-93.5 317.5v731h352v-557q0 -87 4.5 -142t21.5 -93q16 -35 49.5 -53t93.5 -18q37 0 87.5 18t93.5 49v796h350v-1123zM1068 1283h-259l-165 213l-164 -213h-255l301 393h241z" />
    <glyph glyph-name="udieresis" unicode="&#xfc;" horiz-adv-x="1311" 
d="M1177 0h-350v124q-91 -76 -167 -115.5t-181 -39.5q-167 0 -260.5 105.5t-93.5 317.5v731h352v-557q0 -87 4.5 -142t21.5 -93q16 -35 49.5 -53t93.5 -18q37 0 87.5 18t93.5 49v796h350v-1123zM1031 1283h-287v273h287v-273zM550 1283h-287v273h287v-273z" />
    <glyph glyph-name="yacute" unicode="&#xfd;" horiz-adv-x="1179" 
d="M1182 1123l-567 -1535h-376l170 439l-412 1096h368l236 -704l221 704h360zM958 1676l-300 -393h-238l207 393h331z" />
    <glyph glyph-name="thorn" unicode="&#xfe;" horiz-adv-x="1289" 
d="M1235 577q0 -269 -136.5 -434t-336.5 -165q-84 0 -146 19t-132 59v-468h-350v1968h350v-550q77 66 157 107t185 41q195 0 302 -155t107 -422zM877 570q0 164 -50.5 238t-157.5 74q-47 0 -93.5 -15t-91.5 -45v-565q28 -12 61.5 -17t79.5 -5q128 0 190 83.5t62 251.5z" />
    <glyph glyph-name="ydieresis" unicode="&#xff;" horiz-adv-x="1179" 
d="M1182 1123l-567 -1535h-376l170 439l-412 1096h368l236 -704l221 704h360zM979 1283h-287v273h287v-273zM498 1283h-287v273h287v-273z" />
    <glyph glyph-name="Amacron" unicode="&#x100;" horiz-adv-x="1402" 
d="M-6 0l503 1489h408l503 -1489h-385l-93 304h-468l-93 -304h-375zM848 574l-152 491l-152 -491h304zM1092 1719h-782v210h782v-210z" />
    <glyph glyph-name="amacron" unicode="&#x101;" horiz-adv-x="1226" 
d="M753 293v234q-89 -9 -144 -15.5t-108 -25.5q-46 -16 -71.5 -48.5t-25.5 -86.5q0 -79 42.5 -108.5t125.5 -29.5q46 0 94 21t87 59zM753 119q-36 -30 -64.5 -54t-76.5 -48q-47 -23 -91.5 -35t-124.5 -12q-149 0 -247.5 100t-98.5 252q0 125 50 202t144 122q95 46 227 64
t284 28v6q0 93 -68.5 128.5t-205.5 35.5q-62 0 -145 -22.5t-162 -57.5h-30v271q52 15 168 35.5t234 20.5q290 0 422.5 -96.5t132.5 -294.5v-764h-348v119zM1000 1346h-782v210h782v-210z" />
    <glyph glyph-name="Abreve" unicode="&#x102;" horiz-adv-x="1402" 
d="M-6 0l503 1489h408l503 -1489h-385l-93 304h-468l-93 -304h-375zM848 574l-152 491l-152 -491h304zM1070 2009q0 -186 -101.5 -283.5t-267.5 -97.5q-180 0 -275 97.5t-95 283.5h202q0 -46 8.5 -82t28.5 -64q20 -27 51 -42.5t80 -15.5q43 0 76 16t52 42q22 31 30.5 63
t8.5 83h202z" />
    <glyph glyph-name="abreve" unicode="&#x103;" horiz-adv-x="1226" 
d="M753 293v234q-89 -9 -144 -15.5t-108 -25.5q-46 -16 -71.5 -48.5t-25.5 -86.5q0 -79 42.5 -108.5t125.5 -29.5q46 0 94 21t87 59zM753 119q-36 -30 -64.5 -54t-76.5 -48q-47 -23 -91.5 -35t-124.5 -12q-149 0 -247.5 100t-98.5 252q0 125 50 202t144 122q95 46 227 64
t284 28v6q0 93 -68.5 128.5t-205.5 35.5q-62 0 -145 -22.5t-162 -57.5h-30v271q52 15 168 35.5t234 20.5q290 0 422.5 -96.5t132.5 -294.5v-764h-348v119zM973 1636q0 -186 -101.5 -283.5t-267.5 -97.5q-180 0 -275 97.5t-95 283.5h202q0 -46 8.5 -82t28.5 -64
q20 -27 51 -42.5t80 -15.5q43 0 76 16t52 42q22 31 30.5 63t8.5 83h202z" />
    <glyph glyph-name="Aogonek" unicode="&#x104;" horiz-adv-x="1402" 
d="M-6 0l503 1489h408l503 -1489h-224q-2 -22 -3 -42t-1 -42q0 -65 46.5 -104t123.5 -39q37 0 79.5 10t72.5 24h9v-200q-47 -13 -107.5 -18.5t-95.5 -5.5q-164 0 -253 82t-89 236q0 59 13 99.5t23 69.5l-72 234h-468l-93 -304h-375zM848 574l-152 491l-152 -491h304z" />
    <glyph glyph-name="aogonek" unicode="&#x105;" horiz-adv-x="1226" 
d="M753 293v234q-89 -9 -144 -15.5t-108 -25.5q-46 -16 -71.5 -48.5t-25.5 -86.5q0 -79 42.5 -108.5t125.5 -29.5q46 0 94 21t87 59zM753 119q-36 -30 -64.5 -54t-76.5 -48q-47 -23 -91.5 -35t-124.5 -12q-149 0 -247.5 100t-98.5 252q0 125 50 202t144 122q95 46 227 64
t284 28v6q0 93 -68.5 128.5t-205.5 35.5q-62 0 -145 -22.5t-162 -57.5h-30v271q52 15 168 35.5t234 20.5q290 0 422.5 -96.5t132.5 -294.5v-764h-138q-2 -22 -3 -41.5t-1 -42.5q0 -65 46.5 -104t123.5 -39q37 0 79.5 10t72.5 24h9v-200q-47 -13 -107.5 -18.5t-95.5 -5.5
q-164 0 -253.5 82t-89.5 236q0 46 4 111.5t5 106.5z" />
    <glyph glyph-name="Cacute" unicode="&#x106;" horiz-adv-x="1367" 
d="M796 -29q-335 0 -532 202.5t-197 569.5q0 354 197.5 564.5t532.5 210.5q89 0 160 -10t136 -28q51 -15 111 -41t97 -45v-355h-38q-27 24 -68 57.5t-93 65.5t-114.5 54.5t-130.5 22.5q-81 0 -148.5 -25.5t-128.5 -88.5q-56 -57 -91.5 -154t-35.5 -229q0 -139 37 -233.5
t97 -152.5q58 -56 129.5 -81t142.5 -25q74 0 141 24.5t113 54.5q50 31 88 63t66 57h34v-350q-41 -19 -95 -43.5t-111 -41.5q-70 -21 -131 -32t-168 -11zM1103 2049l-300 -393h-238l207 393h331z" />
    <glyph glyph-name="cacute" unicode="&#x107;" horiz-adv-x="1080" 
d="M685 -30q-139 0 -254.5 35t-200.5 108q-84 73 -131 183.5t-47 260.5q0 161 51 274t138 186q84 70 197.5 103.5t236.5 33.5q93 0 186 -21.5t187 -68.5v-300h-45q-21 20 -51.5 44t-66.5 44q-38 21 -86 35.5t-107 14.5q-134 0 -207.5 -93.5t-73.5 -251.5q0 -169 78.5 -252
t208.5 -83q66 0 116 15t86 36q35 21 60 43.5t43 40.5h45v-300q-30 -13 -69.5 -30t-80.5 -28q-51 -14 -95.5 -21.5t-117.5 -7.5zM959 1676l-300 -393h-238l207 393h331z" />
    <glyph glyph-name="Ccircumflex" unicode="&#x108;" horiz-adv-x="1367" 
d="M796 -29q-335 0 -532 202.5t-197 569.5q0 354 197.5 564.5t532.5 210.5q89 0 160 -10t136 -28q51 -15 111 -41t97 -45v-355h-38q-27 24 -68 57.5t-93 65.5t-114.5 54.5t-130.5 22.5q-81 0 -148.5 -25.5t-128.5 -88.5q-56 -57 -91.5 -154t-35.5 -229q0 -139 37 -233.5
t97 -152.5q58 -56 129.5 -81t142.5 -25q74 0 141 24.5t113 54.5q50 31 88 63t66 57h34v-350q-41 -19 -95 -43.5t-111 -41.5q-70 -21 -131 -32t-168 -11zM1203 1656h-259l-165 213l-164 -213h-255l301 393h241z" />
    <glyph glyph-name="ccircumflex" unicode="&#x109;" horiz-adv-x="1080" 
d="M685 -30q-139 0 -254.5 35t-200.5 108q-84 73 -131 183.5t-47 260.5q0 161 51 274t138 186q84 70 197.5 103.5t236.5 33.5q93 0 186 -21.5t187 -68.5v-300h-45q-21 20 -51.5 44t-66.5 44q-38 21 -86 35.5t-107 14.5q-134 0 -207.5 -93.5t-73.5 -251.5q0 -169 78.5 -252
t208.5 -83q66 0 116 15t86 36q35 21 60 43.5t43 40.5h45v-300q-30 -13 -69.5 -30t-80.5 -28q-51 -14 -95.5 -21.5t-117.5 -7.5zM1058 1283h-259l-165 213l-164 -213h-255l301 393h241z" />
    <glyph glyph-name="Cdot" unicode="&#x10a;" horiz-adv-x="1367" 
d="M796 -29q-335 0 -532 202.5t-197 569.5q0 354 197.5 564.5t532.5 210.5q89 0 160 -10t136 -28q51 -15 111 -41t97 -45v-355h-38q-27 24 -68 57.5t-93 65.5t-114.5 54.5t-130.5 22.5q-81 0 -148.5 -25.5t-128.5 -88.5q-56 -57 -91.5 -154t-35.5 -229q0 -139 37 -233.5
t97 -152.5q58 -56 129.5 -81t142.5 -25q74 0 141 24.5t113 54.5q50 31 88 63t66 57h34v-350q-41 -19 -95 -43.5t-111 -41.5q-70 -21 -131 -32t-168 -11zM967 1656h-360v273h360v-273z" />
    <glyph glyph-name="cdot" unicode="&#x10b;" horiz-adv-x="1080" 
d="M685 -30q-139 0 -254.5 35t-200.5 108q-84 73 -131 183.5t-47 260.5q0 161 51 274t138 186q84 70 197.5 103.5t236.5 33.5q93 0 186 -21.5t187 -68.5v-300h-45q-21 20 -51.5 44t-66.5 44q-38 21 -86 35.5t-107 14.5q-134 0 -207.5 -93.5t-73.5 -251.5q0 -169 78.5 -252
t208.5 -83q66 0 116 15t86 36q35 21 60 43.5t43 40.5h45v-300q-30 -13 -69.5 -30t-80.5 -28q-51 -14 -95.5 -21.5t-117.5 -7.5zM814 1283h-360v273h360v-273z" />
    <glyph glyph-name="Ccaron" unicode="&#x10c;" horiz-adv-x="1367" 
d="M796 -29q-335 0 -532 202.5t-197 569.5q0 354 197.5 564.5t532.5 210.5q89 0 160 -10t136 -28q51 -15 111 -41t97 -45v-355h-38q-27 24 -68 57.5t-93 65.5t-114.5 54.5t-130.5 22.5q-81 0 -148.5 -25.5t-128.5 -88.5q-56 -57 -91.5 -154t-35.5 -229q0 -139 37 -233.5
t97 -152.5q58 -56 129.5 -81t142.5 -25q74 0 141 24.5t113 54.5q50 31 88 63t66 57h34v-350q-41 -19 -95 -43.5t-111 -41.5q-70 -21 -131 -32t-168 -11zM1228 2049l-328 -389h-227l-328 389h259l185 -219l184 219h255z" />
    <glyph glyph-name="ccaron" unicode="&#x10d;" horiz-adv-x="1080" 
d="M685 -30q-139 0 -254.5 35t-200.5 108q-84 73 -131 183.5t-47 260.5q0 161 51 274t138 186q84 70 197.5 103.5t236.5 33.5q93 0 186 -21.5t187 -68.5v-300h-45q-21 20 -51.5 44t-66.5 44q-38 21 -86 35.5t-107 14.5q-134 0 -207.5 -93.5t-73.5 -251.5q0 -169 78.5 -252
t208.5 -83q66 0 116 15t86 36q35 21 60 43.5t43 40.5h45v-300q-30 -13 -69.5 -30t-80.5 -28q-51 -14 -95.5 -21.5t-117.5 -7.5zM1063 1676l-328 -389h-227l-328 389h259l185 -219l184 219h255z" />
    <glyph glyph-name="Dcaron" unicode="&#x10e;" horiz-adv-x="1551" 
d="M1484 743q0 -208 -91 -372.5t-230 -252.5q-116 -75 -252.5 -96.5t-290.5 -21.5h-466v1489h462q157 0 294 -20t257 -97q147 -94 232 -253.5t85 -375.5zM1100 746q0 147 -50.5 251.5t-155.5 163.5q-76 42 -159.5 46t-199.5 4h-7v-932h7q126 0 212.5 4.5t164.5 53.5
q92 58 140 160t48 249zM1192 2049l-328 -389h-227l-328 389h259l185 -219l184 219h255z" />
    <glyph glyph-name="dcaron" unicode="&#x10f;" horiz-adv-x="1674" 
d="M1155 0h-350v117q-34 -28 -77.5 -60t-76.5 -48q-42 -20 -83 -30t-98 -10q-192 0 -304 159t-112 425q0 147 38 255t105 188q61 73 148 115.5t184 42.5q88 0 144.5 -18.5t131.5 -57.5v478h350v-1556zM805 310v551q-26 13 -68 21.5t-72 8.5q-126 0 -189.5 -88t-63.5 -246
q0 -166 50.5 -240t163.5 -74q46 0 93 18t86 49zM1722 1556l-233 -553h-224l119 553h338z" />
    <glyph glyph-name="Dslash" unicode="&#x110;" horiz-adv-x="1585" 
d="M1518 743q0 -208 -91 -372.5t-230 -252.5q-117 -74 -253 -96t-290 -22h-465v681h-171v229h171v579h461q157 0 294 -20t257 -97q147 -94 232 -253.5t85 -375.5zM1134 746q0 147 -50.5 251.5t-155.5 163.5q-74 42 -158.5 46t-200.5 4h-8v-301h320v-229h-320v-402h8
q126 0 212.5 4.5t164.5 53.5q92 58 140 160t48 249z" />
    <glyph glyph-name="dmacron" unicode="&#x111;" horiz-adv-x="1280" 
d="M1153 0h-348v117q-34 -28 -77.5 -60t-76.5 -48q-42 -20 -83 -30t-98 -10q-192 0 -304 159t-112 425q0 147 38 254.5t105 187.5q58 70 146.5 113t185.5 43q88 0 144.5 -18.5t131.5 -57.5v162h-318v207h318v112h348v-112h129v-207h-129v-1237zM805 310v548q-26 13 -68 21.5
t-72 8.5q-126 0 -189.5 -86.5t-63.5 -244.5q0 -166 50.5 -240t163.5 -74q46 0 93 18t86 49z" />
    <glyph glyph-name="Emacron" unicode="&#x112;" horiz-adv-x="1260" 
d="M154 0v1489h1007v-284h-635v-261h585v-284h-585v-376h635v-284h-1007zM1046 1719h-782v210h782v-210z" />
    <glyph glyph-name="emacron" unicode="&#x113;" horiz-adv-x="1216" 
d="M709 -30q-318 0 -487.5 152t-169.5 433q0 275 158 439t442 164q258 0 388 -139t130 -398v-126h-767q5 -78 33 -130.5t74 -83.5q45 -31 105 -44.5t131 -13.5q61 0 120 13.5t108 35.5q43 19 79.5 41t59.5 39h37v-289q-43 -17 -78.5 -31.5t-97.5 -29.5q-57 -15 -117.5 -23.5
t-147.5 -8.5zM825 706q-3 111 -51.5 169t-148.5 58q-102 0 -159.5 -61t-63.5 -166h423zM1028 1346h-782v210h782v-210z" />
    <glyph glyph-name="Ebreve" unicode="&#x114;" horiz-adv-x="1260" 
d="M154 0v1489h1007v-284h-635v-261h585v-284h-585v-376h635v-284h-1007zM1029 2009q0 -186 -101.5 -283.5t-267.5 -97.5q-180 0 -275 97.5t-95 283.5h202q0 -46 8.5 -82t28.5 -64q20 -27 51 -42.5t80 -15.5q43 0 76 16t52 42q22 31 30.5 63t8.5 83h202z" />
    <glyph glyph-name="ebreve" unicode="&#x115;" horiz-adv-x="1216" 
d="M709 -30q-318 0 -487.5 152t-169.5 433q0 275 158 439t442 164q258 0 388 -139t130 -398v-126h-767q5 -78 33 -130.5t74 -83.5q45 -31 105 -44.5t131 -13.5q61 0 120 13.5t108 35.5q43 19 79.5 41t59.5 39h37v-289q-43 -17 -78.5 -31.5t-97.5 -29.5q-57 -15 -117.5 -23.5
t-147.5 -8.5zM825 706q-3 111 -51.5 169t-148.5 58q-102 0 -159.5 -61t-63.5 -166h423zM1022 1636q0 -186 -101.5 -283.5t-267.5 -97.5q-180 0 -275 97.5t-95 283.5h202q0 -46 8.5 -82t28.5 -64q20 -27 51 -42.5t80 -15.5q43 0 76 16t52 42q22 31 30.5 63t8.5 83h202z" />
    <glyph glyph-name="Edot" unicode="&#x116;" horiz-adv-x="1260" 
d="M154 0v1489h1007v-284h-635v-261h585v-284h-585v-376h635v-284h-1007zM852 1656h-360v273h360v-273z" />
    <glyph glyph-name="edot" unicode="&#x117;" horiz-adv-x="1216" 
d="M709 -30q-318 0 -487.5 152t-169.5 433q0 275 158 439t442 164q258 0 388 -139t130 -398v-126h-767q5 -78 33 -130.5t74 -83.5q45 -31 105 -44.5t131 -13.5q61 0 120 13.5t108 35.5q43 19 79.5 41t59.5 39h37v-289q-43 -17 -78.5 -31.5t-97.5 -29.5q-57 -15 -117.5 -23.5
t-147.5 -8.5zM825 706q-3 111 -51.5 169t-148.5 58q-102 0 -159.5 -61t-63.5 -166h423zM819 1283h-360v273h360v-273z" />
    <glyph glyph-name="Eogonek" unicode="&#x118;" horiz-adv-x="1260" 
d="M688 0h-534v1489h1007v-284h-635v-261h585v-284h-585v-376h635v-284h-260q-2 -22 -3 -42t-1 -42q0 -64 46 -103.5t124 -39.5q37 0 79.5 10t72.5 24h9v-200q-47 -13 -107.5 -18.5t-95.5 -5.5q-166 0 -254 83t-88 235q0 34 2 57.5t3 41.5z" />
    <glyph glyph-name="eogonek" unicode="&#x119;" horiz-adv-x="1216" 
d="M609 -24q-270 23 -413.5 172.5t-143.5 406.5q0 275 158 439t442 164q258 0 388 -139t130 -398v-126h-767q5 -78 33 -130.5t74 -83.5q45 -31 105 -44.5t131 -13.5q61 0 120 13.5t108 35.5q43 19 79.5 41t59.5 39h37v-289q-43 -17 -77.5 -29.5t-98.5 -29.5
q-35 -9 -72.5 -16.5t-80.5 -10.5q-1 -15 -1.5 -30.5t-0.5 -30.5q0 -65 47 -104t123 -39q37 0 79.5 10t72.5 24h9v-200q-47 -13 -107.5 -18.5t-95.5 -5.5q-165 0 -253 82.5t-88 235.5q0 25 1.5 43.5t1.5 31.5zM825 706q-3 111 -51.5 169t-148.5 58q-102 0 -159.5 -61
t-63.5 -166h423z" />
    <glyph glyph-name="Ecaron" unicode="&#x11a;" horiz-adv-x="1260" 
d="M154 0v1489h1007v-284h-635v-261h585v-284h-585v-376h635v-284h-1007zM1106 2049l-328 -389h-227l-328 389h259l185 -219l184 219h255z" />
    <glyph glyph-name="ecaron" unicode="&#x11b;" horiz-adv-x="1216" 
d="M709 -30q-318 0 -487.5 152t-169.5 433q0 275 158 439t442 164q258 0 388 -139t130 -398v-126h-767q5 -78 33 -130.5t74 -83.5q45 -31 105 -44.5t131 -13.5q61 0 120 13.5t108 35.5q43 19 79.5 41t59.5 39h37v-289q-43 -17 -78.5 -31.5t-97.5 -29.5q-57 -15 -117.5 -23.5
t-147.5 -8.5zM825 706q-3 111 -51.5 169t-148.5 58q-102 0 -159.5 -61t-63.5 -166h423zM1086 1676l-328 -389h-227l-328 389h259l185 -219l184 219h255z" />
    <glyph glyph-name="Gcircumflex" unicode="&#x11c;" horiz-adv-x="1526" 
d="M1398 85q-98 -40 -254.5 -78t-308.5 -38q-351 0 -559.5 202.5t-208.5 574.5q0 350 208.5 561t570.5 211q187 0 304 -35.5t242 -96.5v-349h-34q-27 21 -77.5 59.5t-98.5 65.5q-56 32 -129.5 55t-155.5 23q-96 0 -175 -30t-141 -92q-59 -60 -93.5 -152t-34.5 -214
q0 -261 131 -385t358 -124q20 0 47 1t47 3v292h-289v279h651v-733zM1245 1656h-259l-165 213l-164 -213h-255l301 393h241z" />
    <glyph glyph-name="gcircumflex" unicode="&#x11d;" horiz-adv-x="1289" 
d="M805 354v509q-26 12 -64 20t-76 8q-126 0 -189.5 -81.5t-63.5 -227.5q0 -73 9.5 -123.5t35.5 -89.5q25 -38 65.5 -57.5t103.5 -19.5q47 0 92.5 16t86.5 46zM1155 129q0 -156 -45 -265t-123 -170q-78 -62 -187 -89.5t-242 -27.5q-112 0 -212.5 14.5t-174.5 33.5v281h41
q26 -10 61.5 -22t71.5 -22q43 -11 84 -18t84 -7q89 0 148.5 18.5t89.5 52.5q30 35 42 82.5t12 119.5v21q-59 -52 -136.5 -83.5t-159.5 -31.5q-218 0 -336.5 142t-118.5 432q0 132 36.5 237t101.5 179q62 71 150 109.5t183 38.5q86 0 154 -22t124 -59l13 50h339v-994z
M1081 1283h-259l-165 213l-164 -213h-255l301 393h241z" />
    <glyph glyph-name="Gbreve" unicode="&#x11e;" horiz-adv-x="1526" 
d="M1398 85q-98 -40 -254.5 -78t-308.5 -38q-351 0 -559.5 202.5t-208.5 574.5q0 350 208.5 561t570.5 211q187 0 304 -35.5t242 -96.5v-349h-34q-27 21 -77.5 59.5t-98.5 65.5q-56 32 -129.5 55t-155.5 23q-96 0 -175 -30t-141 -92q-59 -60 -93.5 -152t-34.5 -214
q0 -261 131 -385t358 -124q20 0 47 1t47 3v292h-289v279h651v-733zM1183 2009q0 -186 -101.5 -283.5t-267.5 -97.5q-180 0 -275 97.5t-95 283.5h202q0 -46 8.5 -82t28.5 -64q20 -27 51 -42.5t80 -15.5q43 0 76 16t52 42q22 31 30.5 63t8.5 83h202z" />
    <glyph glyph-name="gbreve" unicode="&#x11f;" horiz-adv-x="1289" 
d="M805 354v509q-26 12 -64 20t-76 8q-126 0 -189.5 -81.5t-63.5 -227.5q0 -73 9.5 -123.5t35.5 -89.5q25 -38 65.5 -57.5t103.5 -19.5q47 0 92.5 16t86.5 46zM1155 129q0 -156 -45 -265t-123 -170q-78 -62 -187 -89.5t-242 -27.5q-112 0 -212.5 14.5t-174.5 33.5v281h41
q26 -10 61.5 -22t71.5 -22q43 -11 84 -18t84 -7q89 0 148.5 18.5t89.5 52.5q30 35 42 82.5t12 119.5v21q-59 -52 -136.5 -83.5t-159.5 -31.5q-218 0 -336.5 142t-118.5 432q0 132 36.5 237t101.5 179q62 71 150 109.5t183 38.5q86 0 154 -22t124 -59l13 50h339v-994z
M1029 1636q0 -186 -101.5 -283.5t-267.5 -97.5q-180 0 -275 97.5t-95 283.5h202q0 -46 8.5 -82t28.5 -64q20 -27 51 -42.5t80 -15.5q43 0 76 16t52 42q22 31 30.5 63t8.5 83h202z" />
    <glyph glyph-name="Gdot" unicode="&#x120;" horiz-adv-x="1526" 
d="M1398 85q-98 -40 -254.5 -78t-308.5 -38q-351 0 -559.5 202.5t-208.5 574.5q0 350 208.5 561t570.5 211q187 0 304 -35.5t242 -96.5v-349h-34q-27 21 -77.5 59.5t-98.5 65.5q-56 32 -129.5 55t-155.5 23q-96 0 -175 -30t-141 -92q-59 -60 -93.5 -152t-34.5 -214
q0 -261 131 -385t358 -124q20 0 47 1t47 3v292h-289v279h651v-733zM1001 1656h-360v273h360v-273z" />
    <glyph glyph-name="gdot" unicode="&#x121;" horiz-adv-x="1289" 
d="M805 354v509q-26 12 -64 20t-76 8q-126 0 -189.5 -81.5t-63.5 -227.5q0 -73 9.5 -123.5t35.5 -89.5q25 -38 65.5 -57.5t103.5 -19.5q47 0 92.5 16t86.5 46zM1155 129q0 -156 -45 -265t-123 -170q-78 -62 -187 -89.5t-242 -27.5q-112 0 -212.5 14.5t-174.5 33.5v281h41
q26 -10 61.5 -22t71.5 -22q43 -11 84 -18t84 -7q89 0 148.5 18.5t89.5 52.5q30 35 42 82.5t12 119.5v21q-59 -52 -136.5 -83.5t-159.5 -31.5q-218 0 -336.5 142t-118.5 432q0 132 36.5 237t101.5 179q62 71 150 109.5t183 38.5q86 0 154 -22t124 -59l13 50h339v-994z
M844 1283h-360v273h360v-273z" />
    <glyph glyph-name="Gcedilla" unicode="&#x122;" horiz-adv-x="1526" 
d="M845 -29h-4.5h-5.5q-358 0 -563 204.5t-205 570.5q0 350 208.5 561t570.5 211q187 0 304 -35.5t242 -96.5v-349h-34q-27 21 -77.5 59.5t-98.5 65.5q-56 32 -129.5 55t-155.5 23q-96 0 -175 -30t-141 -92q-59 -60 -93.5 -152t-34.5 -214q0 -261 131 -385t358 -124
q20 0 47 1t47 3v292h-289v279h651v-733q-62 -25 -151.5 -51t-188.5 -43q1 -15 2 -37t1 -40q0 -162 -95.5 -249.5t-249.5 -87.5q-36 0 -102.5 7t-100.5 17v200h19q24 -11 68 -23t84 -12q75 0 118.5 40.5t43.5 119.5q0 11 -0.5 22t-0.5 23z" />
    <glyph glyph-name="gcedilla" unicode="&#x123;" horiz-adv-x="1289" 
d="M805 354v509q-26 12 -64 20t-76 8q-126 0 -189.5 -81.5t-63.5 -227.5q0 -73 9.5 -123.5t35.5 -89.5q25 -38 65.5 -57.5t103.5 -19.5q47 0 92.5 16t86.5 46zM1155 129q0 -156 -45 -265t-123 -170q-78 -62 -187 -89.5t-242 -27.5q-112 0 -212.5 14.5t-174.5 33.5v281h41
q26 -10 61.5 -22t71.5 -22q43 -11 84 -18t84 -7q89 0 148.5 18.5t89.5 52.5q30 35 42 82.5t12 119.5v21q-59 -52 -136.5 -83.5t-159.5 -31.5q-218 0 -336.5 142t-118.5 432q0 132 36.5 237t101.5 179q62 71 150 109.5t183 38.5q86 0 154 -22t124 -59l13 50h339v-994z
M943 1676l-207 -393h-331l300 393h238z" />
    <glyph glyph-name="Hcircumflex" unicode="&#x124;" horiz-adv-x="1565" 
d="M1411 0h-374v660h-509v-660h-374v1489h374v-545h509v545h374v-1489zM1206 1656h-259l-165 213l-164 -213h-255l301 393h241z" />
    <glyph glyph-name="hcircumflex" unicode="&#x125;" horiz-adv-x="1311" 
d="M1186 0h-352v557q0 68 -5.5 135.5t-20.5 99.5q-18 38 -52 54.5t-91 16.5q-43 0 -87 -16t-94 -51v-796h-350v1556h350v-557q86 73 167.5 114t180.5 41q172 0 263 -108.5t91 -314.5v-731zM1103 1670h-259l-165 213l-164 -213h-255l301 393h241z" />
    <glyph glyph-name="Hbar" unicode="&#x126;" horiz-adv-x="1601" 
d="M1565 1104h-136v-1104h-374v660h-509v-660h-374v1104h-133v216h133v169h374v-169h509v169h374v-169h136v-216zM1055 942v164h-509v-164h509z" />
    <glyph glyph-name="hbar" unicode="&#x127;" horiz-adv-x="1301" 
d="M1176 0h-352v554q0 68 -5.5 135.5t-20.5 99.5q-18 38 -52 54.5t-91 16.5q-43 0 -87 -16t-94 -51v-793h-348v1237h-129v207h129v112h348v-112h318v-207h-318v-241q86 73 167.5 114t180.5 41q172 0 263 -108.5t91 -314.5v-728z" />
    <glyph glyph-name="Itilde" unicode="&#x128;" horiz-adv-x="990" 
d="M896 0h-802v260h214v969h-214v260h802v-260h-214v-969h214v-260zM935 1986q-10 -167 -83 -244.5t-203 -77.5q-48 0 -91 19.5t-74 38.5q-30 19 -66.5 38.5t-61.5 19.5q-50 0 -68 -31.5t-22 -90.5h-210q6 146 82 233.5t203 87.5q48 0 89 -17t79 -39q30 -17 66 -36t59 -19
q48 0 68.5 32t22.5 86h210z" />
    <glyph glyph-name="itilde" unicode="&#x129;" horiz-adv-x="618" 
d="M484 0h-350v1123h350v-1123zM666 1603q-10 -171 -64.5 -241.5t-167.5 -70.5q-41 0 -75 18.5t-61 39.5q-26 21 -53 39.5t-50 18.5q-42 0 -53.5 -32t-14.5 -90h-172q6 165 70 238t161 73q41 0 75 -17t63 -39q23 -17 52 -36t49 -19q42 0 54.5 32.5t14.5 85.5h172z" />
    <glyph glyph-name="Imacron" unicode="&#x12a;" horiz-adv-x="990" 
d="M896 0h-802v260h214v969h-214v260h802v-260h-214v-969h214v-260zM886 1719h-782v210h782v-210z" />
    <glyph glyph-name="imacron" unicode="&#x12b;" horiz-adv-x="618" 
d="M604 1346h-590v210h590v-210zM484 0h-350v1123h350v-1123z" />
    <glyph glyph-name="Ibreve" unicode="&#x12c;" horiz-adv-x="990" 
d="M896 0h-802v260h214v969h-214v260h802v-260h-214v-969h214v-260zM865 2009q0 -186 -101.5 -283.5t-267.5 -97.5q-180 0 -275 97.5t-95 283.5h202q0 -46 8.5 -82t28.5 -64q20 -27 51 -42.5t80 -15.5q43 0 76 16t52 42q22 31 30.5 63t8.5 83h202z" />
    <glyph glyph-name="ibreve" unicode="&#x12d;" horiz-adv-x="618" 
d="M622 1637q0 -192 -83 -283.5t-229 -91.5q-151 0 -232 92.5t-81 282.5h181q0 -104 27 -161.5t105 -57.5q75 0 103 59.5t28 159.5h181zM484 0h-350v1123h350v-1123z" />
    <glyph glyph-name="Iogonek" unicode="&#x12e;" horiz-adv-x="990" 
d="M434 0h-340v260h214v969h-214v260h802v-260h-214v-969h214v-260h-250l-2 -40t-1 -44q0 -63 45.5 -103t124.5 -40q37 0 79.5 10t72.5 24h9v-200q-47 -13 -107.5 -18.5t-95.5 -5.5q-163 0 -252.5 81.5t-89.5 236.5q0 34 2 57.5t3 41.5z" />
    <glyph glyph-name="iogonek" unicode="&#x12f;" horiz-adv-x="618" 
d="M494 1283h-370v273h370v-273zM670 -393q-47 -13 -107.5 -18.5t-95.5 -5.5q-162 0 -252.5 81t-90.5 237q0 46 4.5 108t5.5 110v1004h350v-1123h-140q-2 -21 -3.5 -40t-1.5 -44q0 -67 48 -105t122 -38q37 0 79.5 10t72.5 24h9v-200z" />
    <glyph glyph-name="Idotaccent" unicode="&#x130;" horiz-adv-x="990" 
d="M896 0h-802v260h214v969h-214v260h802v-260h-214v-969h214v-260zM673 1656h-360v273h360v-273z" />
    <glyph glyph-name="dotlessi" unicode="&#x131;" horiz-adv-x="618" 
d="M484 0h-350v1123h350v-1123z" />
    <glyph glyph-name="dotlessi" unicode="&#xf031;" horiz-adv-x="618" 
d="M484 0h-350v1123h350v-1123z" />
    <glyph glyph-name="IJ" unicode="&#x132;" horiz-adv-x="1925" 
d="M896 1229h-214v-969h204v-260h-792v260h214v969h-214v260h802v-260zM1790 437q0 -97 -32 -182.5t-96 -145.5q-68 -64 -163 -98t-234 -34q-54 0 -145 6.5t-134 16.5v285h34q2 0 6.5 -2t11.5 -4t16 -5t20 -5q21 -5 48.5 -9t57.5 -4q92 0 142 29t70 78t22 107t2 152v607
h-300v260h674v-1052z" />
    <glyph glyph-name="ij" unicode="&#x133;" horiz-adv-x="1327" 
d="M494 1283h-370v273h370v-273zM484 0h-350v1123h350v-1123zM1193 1283h-373v273h373v-273zM1193 -20q0 -190 -113 -296.5t-292 -106.5q-96 0 -174 8.5t-114 17.5v258h27q34 -11 75.5 -17.5t66.5 -6.5q101 0 137.5 62t36.5 204v776h-192v244h542v-1143z" />
    <glyph glyph-name="Jcircumflex" unicode="&#x134;" horiz-adv-x="1025" 
d="M890 437q0 -97 -33 -182.5t-100 -145.5q-75 -68 -177 -100t-235 -32q-99 0 -186 7.5t-153 21.5v302h34q45 -18 94 -33.5t126 -15.5q99 0 152.5 28t75.5 78q23 49 25.5 113.5t2.5 143.5v597h-341v270h715v-1052zM965 1656h-259l-165 213l-164 -213h-255l301 393h241z" />
    <glyph glyph-name="jcircumflex" unicode="&#x135;" horiz-adv-x="743" 
d="M609 -20q0 -190 -113 -296.5t-292 -106.5q-96 0 -174 8.5t-114 17.5v258h27q34 -11 75.5 -17.5t66.5 -6.5q101 0 137.5 62t36.5 204v776h-202v244h552v-1143zM703 1283h-229l-125 213l-124 -213h-225l234 393h235z" />
    <glyph glyph-name="Kcedilla" unicode="&#x136;" horiz-adv-x="1426" 
d="M1459 0h-452l-406 605l-73 -102v-503h-374v1489h374v-661l476 661h433l-531 -691zM881 20q1 -18 3 -49.5t2 -56.5q0 -162 -95.5 -249.5t-249.5 -87.5q-36 0 -102.5 7t-100.5 17v200h19q24 -11 68 -23t84 -12q71 0 116.5 39t45.5 121q0 31 -1 55.5t-1 38.5h212z" />
    <glyph glyph-name="kcedilla" unicode="&#x137;" horiz-adv-x="1234" 
d="M1258 0h-416l-304 489l-54 -73v-416h-350v1556h350v-872l332 439h413l-393 -484zM777 20q1 -18 3 -49.5t2 -56.5q0 -162 -95.5 -249.5t-249.5 -87.5q-36 0 -102.5 7t-100.5 17v200h19q24 -11 68 -23t84 -12q71 0 116.5 39t45.5 121q0 31 -1 55.5t-1 38.5h212z" />
    <glyph glyph-name="kgreenlandic" unicode="&#x138;" horiz-adv-x="1234" 
d="M1258 0h-416l-304 489l-54 -73v-416h-350v1123h350v-439l332 439h413l-393 -484z" />
    <glyph glyph-name="Lacute" unicode="&#x139;" horiz-adv-x="1172" 
d="M1148 0h-994v1489h374v-1205h620v-284zM859 2049l-300 -393h-238l207 393h331z" />
    <glyph glyph-name="lacute" unicode="&#x13a;" horiz-adv-x="618" 
d="M484 0h-350v1556h350v-1556zM639 2063l-300 -393h-238l207 393h331z" />
    <glyph glyph-name="Lcedilla" unicode="&#x13b;" horiz-adv-x="1172" 
d="M666 0h-512v1489h374v-1205h620v-284h-269q1 -19 2.5 -43.5t1.5 -42.5q0 -162 -95.5 -249.5t-249.5 -87.5q-36 0 -102.5 7t-100.5 17v200h19q24 -11 68 -23t84 -12q71 0 116.5 39t45.5 121q0 21 -1 40.5t-1 33.5z" />
    <glyph glyph-name="lcedilla" unicode="&#x13c;" horiz-adv-x="618" 
d="M355 0h-221v1556h350v-1536h83q1 -18 3 -49.5t2 -56.5q0 -162 -95.5 -249.5t-249.5 -87.5q-36 0 -102.5 7t-100.5 17v200h19q24 -11 68 -23t84 -12q74 0 118 39.5t44 120.5q0 7 -0.5 30t-1.5 44z" />
    <glyph glyph-name="Lcaron" unicode="&#x13d;" horiz-adv-x="1172" 
d="M1148 0h-994v1489h374v-1205h620v-284zM1196 1556l-238 -563h-229l119 563h348z" />
    <glyph glyph-name="lcaron" unicode="&#x13e;" horiz-adv-x="1003" 
d="M484 0h-350v1556h350v-1556zM1051 1556l-233 -553h-224l119 553h338z" />
    <glyph glyph-name="Ldot" unicode="&#x13f;" horiz-adv-x="1172" 
d="M1148 0h-994v1489h374v-1205h620v-284zM1088 605h-322v348h322v-348z" />
    <glyph glyph-name="ldot" unicode="&#x140;" horiz-adv-x="998" 
d="M484 0h-350v1556h350v-1556zM964 605h-312v348h312v-348z" />
    <glyph glyph-name="Lslash" unicode="&#x141;" horiz-adv-x="1206" 
d="M1182 0h-994v473l-170 -101v240l170 99v778h372v-573l321 192v-240l-321 -189v-395h622v-284z" />
    <glyph glyph-name="lslash" unicode="&#x142;" horiz-adv-x="686" 
d="M671 789l-153 -89v-700h-350v510l-150 -91v233l150 87v817h350v-627l153 93v-233z" />
    <glyph glyph-name="Nacute" unicode="&#x143;" horiz-adv-x="1578" 
d="M1430 0h-360l-574 1038v-1038h-342v1489h459l475 -853v853h342v-1489zM1148 2049l-300 -393h-238l207 393h331z" />
    <glyph glyph-name="nacute" unicode="&#x144;" horiz-adv-x="1311" 
d="M1186 0h-352v557q0 68 -5.5 135.5t-20.5 99.5q-18 38 -52 54.5t-91 16.5q-43 0 -87 -16t-94 -51v-796h-350v1123h350v-124q86 73 167.5 114t180.5 41q172 0 263 -108.5t91 -314.5v-731zM996 1676l-300 -393h-238l207 393h331z" />
    <glyph glyph-name="Ncedilla" unicode="&#x145;" horiz-adv-x="1578" 
d="M1430 0h-360l-574 1038v-1038h-342v1489h459l475 -853v853h342v-1489zM920 20q1 -18 3 -49.5t2 -56.5q0 -162 -95.5 -249.5t-249.5 -87.5q-36 0 -102.5 7t-100.5 17v200h19q24 -11 68 -23t84 -12q71 0 116.5 39t45.5 121q0 31 -1 55.5t-1 38.5h212z" />
    <glyph glyph-name="ncedilla" unicode="&#x146;" horiz-adv-x="1311" 
d="M1186 0h-352v557q0 68 -5.5 135.5t-20.5 99.5q-18 38 -52 54.5t-91 16.5q-43 0 -87 -16t-94 -51v-796h-350v1123h350v-124q86 73 167.5 114t180.5 41q172 0 263 -108.5t91 -314.5v-731zM784 20q1 -18 3 -49.5t2 -56.5q0 -162 -95.5 -249.5t-249.5 -87.5q-36 0 -102.5 7
t-100.5 17v200h19q24 -11 68 -23t84 -12q71 0 116.5 39t45.5 121q0 31 -1 55.5t-1 38.5h212z" />
    <glyph glyph-name="Ncaron" unicode="&#x147;" horiz-adv-x="1578" 
d="M1430 0h-360l-574 1038v-1038h-342v1489h459l475 -853v853h342v-1489zM1252 2049l-328 -389h-227l-328 389h259l185 -219l184 219h255z" />
    <glyph glyph-name="ncaron" unicode="&#x148;" horiz-adv-x="1311" 
d="M1186 0h-352v557q0 68 -5.5 135.5t-20.5 99.5q-18 38 -52 54.5t-91 16.5q-43 0 -87 -16t-94 -51v-796h-350v1123h350v-124q86 73 167.5 114t180.5 41q172 0 263 -108.5t91 -314.5v-731zM1110 1676l-328 -389h-227l-328 389h259l185 -219l184 219h255z" />
    <glyph glyph-name="napostrophe" unicode="&#x149;" horiz-adv-x="1520" 
d="M1395 0h-352v557q0 68 -5.5 135.5t-20.5 99.5q-18 38 -52 54.5t-91 16.5q-43 0 -87 -16t-94 -51v-796h-350v1123h350v-124q86 73 167.5 114t180.5 41q172 0 263 -108.5t91 -314.5v-731zM425 1556l-239 -553h-224l125 553h338z" />
    <glyph glyph-name="Eng" unicode="&#x14a;" horiz-adv-x="1578" 
d="M1091 -3v32l-595 1009v-1038h-342v1489h459l475 -809v809h342v-1507q0 -190 -114 -297.5t-293 -107.5q-96 0 -173 8.5t-113 17.5v258h27q34 -11 85 -17.5t77 -6.5q25 0 59.5 6t53.5 20q25 18 38.5 44.5t13.5 89.5z" />
    <glyph glyph-name="eng" unicode="&#x14b;" horiz-adv-x="1311" 
d="M834 90v467q0 68 -5.5 135.5t-20.5 99.5q-18 38 -52 54.5t-91 16.5q-43 0 -87 -16t-94 -51v-796h-350v1123h350v-124q86 73 167.5 114t180.5 41q172 0 263 -108.5t91 -314.5v-729q0 -190 -113.5 -307.5t-292.5 -117.5q-96 0 -174.5 9t-103.5 15v252h27q24 -8 58 -15.5
t74 -7.5q96 0 134.5 56.5t38.5 203.5z" />
    <glyph glyph-name="Omacron" unicode="&#x14c;" horiz-adv-x="1577" 
d="M1510 744q0 -361 -193 -568t-529 -207q-337 0 -529 209.5t-192 565.5q0 359 192 567.5t529 208.5q336 0 529 -207.5t193 -568.5zM1124 745q0 133 -27.5 226.5t-73.5 153.5q-48 61 -108.5 87.5t-125.5 26.5q-69 0 -125 -24.5t-108 -87.5q-46 -58 -74.5 -154t-28.5 -229
q0 -137 27 -227.5t74 -151.5q48 -62 109 -88.5t126 -26.5q66 0 128 28.5t107 88.5q48 65 74 151.5t26 226.5zM1180 1719h-782v210h782v-210z" />
    <glyph glyph-name="omacron" unicode="&#x14d;" horiz-adv-x="1264" 
d="M1212 561q0 -277 -151.5 -436.5t-428.5 -159.5q-275 0 -427.5 159.5t-152.5 436.5q0 280 152.5 438.5t427.5 158.5q276 0 428 -159.5t152 -437.5zM853 559q0 100 -16.5 166.5t-45.5 106.5q-31 42 -70 58.5t-89 16.5q-47 0 -85 -14.5t-70 -55.5q-30 -39 -48 -107t-18 -171
t17 -166.5t44 -101.5q28 -39 70 -57t93 -18q42 0 85.5 18t69.5 54q31 43 47 103.5t16 167.5zM1024 1346h-782v210h782v-210z" />
    <glyph glyph-name="Obreve" unicode="&#x14e;" horiz-adv-x="1577" 
d="M1510 744q0 -361 -193 -568t-529 -207q-337 0 -529 209.5t-192 565.5q0 359 192 567.5t529 208.5q336 0 529 -207.5t193 -568.5zM1124 745q0 133 -27.5 226.5t-73.5 153.5q-48 61 -108.5 87.5t-125.5 26.5q-69 0 -125 -24.5t-108 -87.5q-46 -58 -74.5 -154t-28.5 -229
q0 -137 27 -227.5t74 -151.5q48 -62 109 -88.5t126 -26.5q66 0 128 28.5t107 88.5q48 65 74 151.5t26 226.5zM1157 2009q0 -186 -101.5 -283.5t-267.5 -97.5q-180 0 -275 97.5t-95 283.5h202q0 -46 8.5 -82t28.5 -64q20 -27 51 -42.5t80 -15.5q43 0 76 16t52 42
q22 31 30.5 63t8.5 83h202z" />
    <glyph glyph-name="obreve" unicode="&#x14f;" horiz-adv-x="1264" 
d="M1212 561q0 -277 -151.5 -436.5t-428.5 -159.5q-275 0 -427.5 159.5t-152.5 436.5q0 280 152.5 438.5t427.5 158.5q276 0 428 -159.5t152 -437.5zM853 559q0 100 -16.5 166.5t-45.5 106.5q-31 42 -70 58.5t-89 16.5q-47 0 -85 -14.5t-70 -55.5q-30 -39 -48 -107t-18 -171
t17 -166.5t44 -101.5q28 -39 70 -57t93 -18q42 0 85.5 18t69.5 54q31 43 47 103.5t16 167.5zM1002 1636q0 -186 -101.5 -283.5t-267.5 -97.5q-180 0 -275 97.5t-95 283.5h202q0 -46 8.5 -82t28.5 -64q20 -27 51 -42.5t80 -15.5q43 0 76 16t52 42q22 31 30.5 63t8.5 83h202z
" />
    <glyph glyph-name="Odblacute" unicode="&#x150;" horiz-adv-x="1577" 
d="M1510 744q0 -361 -193 -568t-529 -207q-337 0 -529 209.5t-192 565.5q0 359 192 567.5t529 208.5q336 0 529 -207.5t193 -568.5zM1124 745q0 133 -27.5 226.5t-73.5 153.5q-48 61 -108.5 87.5t-125.5 26.5q-69 0 -125 -24.5t-108 -87.5q-46 -58 -74.5 -154t-28.5 -229
q0 -137 27 -227.5t74 -151.5q48 -62 109 -88.5t126 -26.5q66 0 128 28.5t107 88.5q48 65 74 151.5t26 226.5zM1295 2049l-258 -393h-209l169 393h298zM891 2049l-258 -393h-209l169 393h298z" />
    <glyph glyph-name="odblacute" unicode="&#x151;" horiz-adv-x="1264" 
d="M1212 561q0 -277 -151.5 -436.5t-428.5 -159.5q-275 0 -427.5 159.5t-152.5 436.5q0 280 152.5 438.5t427.5 158.5q276 0 428 -159.5t152 -437.5zM853 559q0 100 -16.5 166.5t-45.5 106.5q-31 42 -70 58.5t-89 16.5q-47 0 -85 -14.5t-70 -55.5q-30 -39 -48 -107t-18 -171
t17 -166.5t44 -101.5q28 -39 70 -57t93 -18q42 0 85.5 18t69.5 54q31 43 47 103.5t16 167.5zM1144 1676l-258 -393h-209l169 393h298zM740 1676l-258 -393h-209l169 393h298z" />
    <glyph glyph-name="OE" unicode="&#x152;" horiz-adv-x="2123" 
d="M2023 0h-1088q-211 0 -337.5 30.5t-213.5 86.5q-148 95 -232.5 254.5t-84.5 374.5q0 198 87.5 364.5t233.5 260.5q83 55 205.5 86.5t337.5 31.5h1092v-284h-635v-261h585v-284h-585v-376h635v-284zM1016 278v932h-116t-96 -5q-52 -6 -86 -16t-79 -37q-95 -58 -141.5 -162
t-46.5 -247q0 -147 50.5 -251.5t155.5 -163.5q37 -20 77.5 -31.5t81.5 -14.5q42 -4 91.5 -4h108.5z" />
    <glyph glyph-name="oe" unicode="&#x153;" horiz-adv-x="2018" 
d="M1627 706q-3 111 -51.5 169t-148.5 58q-103 0 -160.5 -62t-62.5 -165h423zM853 559q0 172 -53 260t-168 88q-47 0 -85 -14.5t-70 -55.5q-30 -39 -48 -107t-18 -171q0 -168 53.5 -255.5t170.5 -87.5q42 0 85.5 18t69.5 54q35 49 49 114.5t14 156.5zM1972 495h-767
q5 -78 33 -130.5t74 -83.5q45 -31 105 -44.5t131 -13.5q61 0 120 13.5t108 35.5q43 19 79.5 41t59.5 39h37v-289q-43 -17 -78.5 -31.5t-97.5 -29.5q-57 -15 -117.5 -23.5t-147.5 -8.5q-148 0 -277 44.5t-193 117.5q-69 -74 -171.5 -120.5t-237.5 -46.5q-271 0 -425.5 157
t-154.5 439q0 280 152.5 438.5t427.5 158.5q130 0 235.5 -47t171.5 -112q58 68 172 113.5t243 45.5q258 0 388 -139t130 -398v-126z" />
    <glyph glyph-name="Racute" unicode="&#x154;" horiz-adv-x="1487" 
d="M1531 0h-456l-415 546h-134v-546h-372v1489h599q124 0 216 -15.5t170 -64.5q80 -51 127 -129.5t47 -199.5q0 -171 -77 -277.5t-206 -169.5zM929 1033q0 56 -21.5 96.5t-71.5 62.5q-35 15 -78 19t-107 4h-125v-401h107q78 0 132.5 9.5t92.5 40.5q36 28 53.5 67t17.5 102z
M1069 2049l-300 -393h-238l207 393h331z" />
    <glyph glyph-name="racute" unicode="&#x155;" horiz-adv-x="888" 
d="M888 792h-29q-20 7 -58 10.5t-84 3.5q-55 0 -115.5 -16t-117.5 -38v-752h-350v1123h350v-161q24 22 66.5 55.5t77.5 53.5q38 23 88.5 39.5t95.5 16.5q17 0 38 -1t38 -3v-331zM823 1676l-300 -393h-238l207 393h331z" />
    <glyph glyph-name="Rcedilla" unicode="&#x156;" horiz-adv-x="1487" 
d="M1531 0h-456l-415 546h-134v-546h-372v1489h599q124 0 216 -15.5t170 -64.5q80 -51 127 -129.5t47 -199.5q0 -171 -77 -277.5t-206 -169.5zM929 1033q0 56 -21.5 96.5t-71.5 62.5q-35 15 -78 19t-107 4h-125v-401h107q78 0 132.5 9.5t92.5 40.5q36 28 53.5 67t17.5 102z
M912 20q1 -18 3 -49.5t2 -56.5q0 -162 -95.5 -249.5t-249.5 -87.5q-36 0 -102.5 7t-100.5 17v200h19q24 -11 68 -23t84 -12q71 0 116.5 39t45.5 121q0 31 -1 55.5t-1 38.5h212z" />
    <glyph glyph-name="rcedilla" unicode="&#x157;" horiz-adv-x="948" 
d="M888 792h-29q-20 7 -58 10.5t-84 3.5q-55 0 -115.5 -16t-117.5 -38v-732h130q1 -18 3 -49.5t2 -56.5q0 -162 -95.5 -249.5t-249.5 -87.5q-36 0 -102.5 7t-100.5 17v200h19q24 -11 68 -23t84 -12q74 0 118 39.5t44 120.5q0 7 -0.5 30t-1.5 44h-268v1123h350v-161
q24 22 66.5 55.5t77.5 53.5q38 23 88.5 39.5t95.5 16.5q17 0 38 -1t38 -3v-331z" />
    <glyph glyph-name="Rcaron" unicode="&#x158;" horiz-adv-x="1487" 
d="M1531 0h-456l-415 546h-134v-546h-372v1489h599q124 0 216 -15.5t170 -64.5q80 -51 127 -129.5t47 -199.5q0 -171 -77 -277.5t-206 -169.5zM929 1033q0 56 -21.5 96.5t-71.5 62.5q-35 15 -78 19t-107 4h-125v-401h107q78 0 132.5 9.5t92.5 40.5q36 28 53.5 67t17.5 102z
M1156 2049l-328 -389h-227l-328 389h259l185 -219l184 219h255z" />
    <glyph glyph-name="rcaron" unicode="&#x159;" horiz-adv-x="888" 
d="M888 792h-29q-20 7 -58 10.5t-84 3.5q-55 0 -115.5 -16t-117.5 -38v-752h-350v1123h350v-161q24 22 66.5 55.5t77.5 53.5q38 23 88.5 39.5t95.5 16.5q17 0 38 -1t38 -3v-331zM930 1676l-328 -389h-227l-328 389h259l185 -219l184 219h255z" />
    <glyph glyph-name="Sacute" unicode="&#x15a;" horiz-adv-x="1297" 
d="M614 -27q-171 0 -300.5 33t-240.5 82v354h34q112 -95 247 -146t262 -51q32 0 84.5 7t84.5 22q39 17 66 47.5t27 80.5q0 56 -44 91t-105 51q-76 20 -162.5 38t-161.5 44q-173 61 -248 164t-75 258q0 209 177 338.5t442 129.5q133 0 264.5 -27t235.5 -73v-340h-33
q-83 71 -202.5 120t-245.5 49q-49 0 -88 -7t-82 -27q-35 -16 -60.5 -47.5t-25.5 -70.5q0 -57 40.5 -90.5t156.5 -60.5q75 -17 144.5 -33t148.5 -44q155 -56 230.5 -150.5t75.5 -249.5q0 -222 -174.5 -357t-471.5 -135zM1049 2049l-300 -393h-238l207 393h331z" />
    <glyph glyph-name="sacute" unicode="&#x15b;" horiz-adv-x="1054" 
d="M476 -31q-124 0 -234.5 27t-182.5 63v296h29q25 -19 57 -42t89 -48q49 -23 110.5 -39.5t133.5 -16.5q74 0 130.5 23t56.5 73q0 39 -26 59t-101 38q-40 10 -101 21.5t-108 26.5q-132 41 -198.5 121.5t-66.5 211.5q0 75 34.5 141.5t101.5 118.5q67 51 165.5 81t222.5 30
q118 0 217 -23.5t167 -56.5v-284h-28q-18 14 -57 37.5t-76 40.5q-44 20 -98.5 33t-111.5 13q-76 0 -128.5 -26t-52.5 -69q0 -38 26 -60t113 -43q45 -11 103.5 -21.5t112.5 -28.5q121 -39 183.5 -114.5t62.5 -200.5q0 -79 -37 -150.5t-105 -120.5q-72 -53 -169.5 -82
t-233.5 -29zM899 1676l-300 -393h-238l207 393h331z" />
    <glyph glyph-name="Scircumflex" unicode="&#x15c;" horiz-adv-x="1297" 
d="M614 -27q-171 0 -300.5 33t-240.5 82v354h34q112 -95 247 -146t262 -51q32 0 84.5 7t84.5 22q39 17 66 47.5t27 80.5q0 56 -44 91t-105 51q-76 20 -162.5 38t-161.5 44q-173 61 -248 164t-75 258q0 209 177 338.5t442 129.5q133 0 264.5 -27t235.5 -73v-340h-33
q-83 71 -202.5 120t-245.5 49q-49 0 -88 -7t-82 -27q-35 -16 -60.5 -47.5t-25.5 -70.5q0 -57 40.5 -90.5t156.5 -60.5q75 -17 144.5 -33t148.5 -44q155 -56 230.5 -150.5t75.5 -249.5q0 -222 -174.5 -357t-471.5 -135zM1115 1656h-259l-165 213l-164 -213h-255l301 393h241z
" />
    <glyph glyph-name="scircumflex" unicode="&#x15d;" horiz-adv-x="1054" 
d="M476 -31q-124 0 -234.5 27t-182.5 63v296h29q25 -19 57 -42t89 -48q49 -23 110.5 -39.5t133.5 -16.5q74 0 130.5 23t56.5 73q0 39 -26 59t-101 38q-40 10 -101 21.5t-108 26.5q-132 41 -198.5 121.5t-66.5 211.5q0 75 34.5 141.5t101.5 118.5q67 51 165.5 81t222.5 30
q118 0 217 -23.5t167 -56.5v-284h-28q-18 14 -57 37.5t-76 40.5q-44 20 -98.5 33t-111.5 13q-76 0 -128.5 -26t-52.5 -69q0 -38 26 -60t113 -43q45 -11 103.5 -21.5t112.5 -28.5q121 -39 183.5 -114.5t62.5 -200.5q0 -79 -37 -150.5t-105 -120.5q-72 -53 -169.5 -82
t-233.5 -29zM971 1283h-259l-165 213l-164 -213h-255l301 393h241z" />
    <glyph glyph-name="Scedilla" unicode="&#x15e;" horiz-adv-x="1297" 
d="M614 -23q-171 0 -300.5 31t-240.5 80v354h34q112 -95 247 -146t262 -51q32 0 84.5 7t84.5 22q39 17 66 47.5t27 80.5q0 56 -44 91t-105 51q-76 20 -162.5 38t-161.5 44q-173 61 -248 164t-75 258q0 209 177 338.5t442 129.5q133 0 264.5 -27t235.5 -73v-340h-33
q-83 71 -202.5 120t-245.5 49q-49 0 -88 -7t-82 -27q-35 -16 -60.5 -47.5t-25.5 -70.5q0 -57 40.5 -90.5t156.5 -60.5q75 -17 144.5 -33t148.5 -44q155 -56 230.5 -150.5t75.5 -249.5t-86.5 -268t-243.5 -170q2 -23 5 -59t3 -54q0 -162 -95.5 -249.5t-249.5 -87.5
q-36 0 -102.5 7t-100.5 17v200h19q24 -11 68 -23t84 -12q44 0 77.5 14.5t50.5 35.5t25.5 49t8.5 61v7.5t-1 13.5v15.5t-1 19.5q-25 -1 -52.5 -3t-54.5 -2z" />
    <glyph glyph-name="scedilla" unicode="&#x15f;" horiz-adv-x="1054" 
d="M476 -27q-124 0 -234.5 25t-182.5 61v296h29q25 -19 57 -42t89 -48q49 -23 110.5 -39.5t133.5 -16.5q74 0 130.5 23t56.5 73q0 39 -26 59t-101 38q-40 10 -101 21.5t-108 26.5q-132 41 -198.5 121.5t-66.5 211.5q0 75 34.5 141.5t101.5 118.5q67 51 165.5 81t222.5 30
q118 0 217 -23.5t167 -56.5v-284h-28q-18 14 -57 37.5t-76 40.5q-44 20 -98.5 33t-111.5 13q-76 0 -128.5 -26t-52.5 -69q0 -38 26 -60t113 -43q45 -11 103.5 -21.5t112.5 -28.5q121 -39 183.5 -114.5t62.5 -200.5q0 -79 -37 -150t-105 -120q-19 -14 -41 -26t-44 -22
q2 -23 4.5 -55t2.5 -64q0 -162 -95.5 -249.5t-249.5 -87.5q-36 0 -102.5 7t-100.5 17v200h19q24 -11 68 -23t84 -12q44 0 77.5 14.5t50.5 35.5t25.5 49t8.5 61v7v13t-0.5 16.5t-0.5 16.5q-24 -2 -52 -4t-57 -2z" />
    <glyph glyph-name="Scaron" unicode="&#x160;" horiz-adv-x="1297" 
d="M614 -27q-171 0 -300.5 33t-240.5 82v354h34q112 -95 247 -146t262 -51q32 0 84.5 7t84.5 22q39 17 66 47.5t27 80.5q0 56 -44 91t-105 51q-76 20 -162.5 38t-161.5 44q-173 61 -248 164t-75 258q0 209 177 338.5t442 129.5q133 0 264.5 -27t235.5 -73v-340h-33
q-83 71 -202.5 120t-245.5 49q-49 0 -88 -7t-82 -27q-35 -16 -60.5 -47.5t-25.5 -70.5q0 -57 40.5 -90.5t156.5 -60.5q75 -17 144.5 -33t148.5 -44q155 -56 230.5 -150.5t75.5 -249.5q0 -222 -174.5 -357t-471.5 -135zM1136 2049l-328 -389h-227l-328 389h259l185 -219
l184 219h255z" />
    <glyph glyph-name="scaron" unicode="&#x161;" horiz-adv-x="1054" 
d="M476 -31q-124 0 -234.5 27t-182.5 63v296h29q25 -19 57 -42t89 -48q49 -23 110.5 -39.5t133.5 -16.5q74 0 130.5 23t56.5 73q0 39 -26 59t-101 38q-40 10 -101 21.5t-108 26.5q-132 41 -198.5 121.5t-66.5 211.5q0 75 34.5 141.5t101.5 118.5q67 51 165.5 81t222.5 30
q118 0 217 -23.5t167 -56.5v-284h-28q-18 14 -57 37.5t-76 40.5q-44 20 -98.5 33t-111.5 13q-76 0 -128.5 -26t-52.5 -69q0 -38 26 -60t113 -43q45 -11 103.5 -21.5t112.5 -28.5q121 -39 183.5 -114.5t62.5 -200.5q0 -79 -37 -150.5t-105 -120.5q-72 -53 -169.5 -82
t-233.5 -29zM998 1676l-328 -389h-227l-328 389h259l185 -219l184 219h255z" />
    <glyph glyph-name="Tcedilla" unicode="&#x162;" horiz-adv-x="1254" 
d="M1254 1205h-440v-1185h89q1 -18 3 -49.5t2 -56.5q0 -162 -95.5 -249.5t-249.5 -87.5q-36 0 -102.5 7t-100.5 17v200h19q24 -11 68 -23t84 -12q73 0 117.5 40t44.5 120q0 7 -0.5 30t-1.5 44h-251v1205h-440v284h1254v-284z" />
    <glyph glyph-name="tcedilla" unicode="&#x163;" horiz-adv-x="851" 
d="M552 -20q-207 1 -302 89.5t-95 284.5v525h-134v244h134v321h350v-321h337v-244h-337v-398q0 -59 1 -103t16 -79q14 -35 49.5 -55.5t103.5 -20.5q28 0 73.5 12t63.5 22h30v-246q-19 -5 -38 -9t-39 -7q0 -16 1.5 -39.5t1.5 -41.5q0 -162 -95.5 -249.5t-249.5 -87.5
q-36 0 -102.5 7t-100.5 17v200h19q24 -11 68 -23t84 -12q44 0 77.5 14.5t50.5 35.5t25.5 49t8.5 61v7.5v13.5q-1 7 -1 16v17z" />
    <glyph glyph-name="Tcaron" unicode="&#x164;" horiz-adv-x="1254" 
d="M440 0v1205h-440v284h1254v-284h-440v-1205h-374zM1068 2049l-328 -389h-227l-328 389h259l185 -219l184 219h255z" />
    <glyph glyph-name="tcaron" unicode="&#x165;" horiz-adv-x="1268" 
d="M564 -22q-214 0 -311.5 88t-97.5 288v525h-134v244h134v321h350v-321h297v-244h-297v-398q0 -59 1 -103t16 -79q14 -35 49.5 -55.5t103.5 -20.5q28 0 73.5 12t63.5 22h30v-247q-57 -15 -121 -23.5t-157 -8.5zM1316 1556l-233 -553h-224l119 553h338z" />
    <glyph glyph-name="Tbar" unicode="&#x166;" horiz-adv-x="1254" 
d="M1254 1205h-440v-371h256v-229h-256v-605h-374v605h-256v229h256v371h-440v284h1254v-284z" />
    <glyph glyph-name="tbar" unicode="&#x167;" horiz-adv-x="851" 
d="M842 10q-57 -15 -121 -23.5t-157 -8.5q-227 0 -317.5 95t-90.5 281v114h-125v212h125v199h-135v244h134v321h350v-321h337v-244h-339v-199h231v-212h-230q0 -60 1 -98.5t19 -76.5q17 -35 49 -52.5t102 -17.5q28 0 73.5 12t63.5 22h30v-247z" />
    <glyph glyph-name="Utilde" unicode="&#x168;" horiz-adv-x="1513" 
d="M756 -31q-300 0 -461.5 145t-161.5 424v951h374v-929q0 -155 58.5 -231t190.5 -76q129 0 189.5 73t60.5 234v929h374v-950q0 -275 -157.5 -422.5t-466.5 -147.5zM1197 1986q-10 -167 -83 -244.5t-203 -77.5q-48 0 -91 19.5t-74 38.5q-30 19 -66.5 38.5t-61.5 19.5
q-50 0 -68 -31.5t-22 -90.5h-210q6 146 82 233.5t203 87.5q48 0 89 -17t79 -39q30 -17 66 -36t59 -19q48 0 68.5 32t22.5 86h210z" />
    <glyph glyph-name="utilde" unicode="&#x169;" horiz-adv-x="1311" 
d="M1177 0h-350v124q-91 -76 -167 -115.5t-181 -39.5q-167 0 -260.5 105.5t-93.5 317.5v731h352v-557q0 -87 4.5 -142t21.5 -93q16 -35 49.5 -53t93.5 -18q37 0 87.5 18t93.5 49v796h350v-1123zM1112 1613q-10 -167 -83 -244.5t-203 -77.5q-48 0 -91 19.5t-74 38.5
q-30 19 -66.5 38.5t-61.5 19.5q-50 0 -68 -31.5t-22 -90.5h-210q6 146 82 233.5t203 87.5q48 0 89 -17t79 -39q30 -17 66 -36t59 -19q48 0 68.5 32t22.5 86h210z" />
    <glyph glyph-name="Umacron" unicode="&#x16a;" horiz-adv-x="1513" 
d="M756 -31q-300 0 -461.5 145t-161.5 424v951h374v-929q0 -155 58.5 -231t190.5 -76q129 0 189.5 73t60.5 234v929h374v-950q0 -275 -157.5 -422.5t-466.5 -147.5zM1148 1719h-782v210h782v-210z" />
    <glyph glyph-name="umacron" unicode="&#x16b;" horiz-adv-x="1311" 
d="M1177 0h-350v124q-91 -76 -167 -115.5t-181 -39.5q-167 0 -260.5 105.5t-93.5 317.5v731h352v-557q0 -87 4.5 -142t21.5 -93q16 -35 49.5 -53t93.5 -18q37 0 87.5 18t93.5 49v796h350v-1123zM1050 1346h-782v210h782v-210z" />
    <glyph glyph-name="Ubreve" unicode="&#x16c;" horiz-adv-x="1513" 
d="M756 -31q-300 0 -461.5 145t-161.5 424v951h374v-929q0 -155 58.5 -231t190.5 -76q129 0 189.5 73t60.5 234v929h374v-950q0 -275 -157.5 -422.5t-466.5 -147.5zM1127 2009q0 -186 -101.5 -283.5t-267.5 -97.5q-180 0 -275 97.5t-95 283.5h202q0 -46 8.5 -82t28.5 -64
q20 -27 51 -42.5t80 -15.5q43 0 76 16t52 42q22 31 30.5 63t8.5 83h202z" />
    <glyph glyph-name="ubreve" unicode="&#x16d;" horiz-adv-x="1311" 
d="M1177 0h-350v124q-91 -76 -167 -115.5t-181 -39.5q-167 0 -260.5 105.5t-93.5 317.5v731h352v-557q0 -87 4.5 -142t21.5 -93q16 -35 49.5 -53t93.5 -18q37 0 87.5 18t93.5 49v796h350v-1123zM1023 1636q0 -186 -101.5 -283.5t-267.5 -97.5q-180 0 -275 97.5t-95 283.5
h202q0 -46 8.5 -82t28.5 -64q20 -27 51 -42.5t80 -15.5q43 0 76 16t52 42q22 31 30.5 63t8.5 83h202z" />
    <glyph glyph-name="Uring" unicode="&#x16e;" horiz-adv-x="1513" 
d="M756 -31q-300 0 -461.5 145t-161.5 424v951h374v-929q0 -155 58.5 -231t190.5 -76q129 0 189.5 73t60.5 234v929h374v-950q0 -275 -157.5 -422.5t-466.5 -147.5zM1063 1677q0 -129 -88.5 -215t-217.5 -86q-128 0 -217 86.5t-89 214.5t89 214.5t217 86.5q129 0 217.5 -86
t88.5 -215zM893 1676q0 62 -38.5 105t-97.5 43t-97.5 -42.5t-38.5 -105.5t38 -104.5t98 -41.5t98 42t38 104z" />
    <glyph glyph-name="uring" unicode="&#x16f;" horiz-adv-x="1311" 
d="M1177 0h-350v124q-91 -76 -167 -115.5t-181 -39.5q-167 0 -260.5 105.5t-93.5 317.5v731h352v-557q0 -87 4.5 -142t21.5 -93q16 -35 49.5 -53t93.5 -18q37 0 87.5 18t93.5 49v796h350v-1123zM957 1421q0 -129 -88.5 -215t-217.5 -86q-128 0 -217 86.5t-89 214.5t89 214.5
t217 86.5q129 0 217.5 -86t88.5 -215zM787 1420q0 62 -38.5 105t-97.5 43t-97.5 -42.5t-38.5 -105.5t38 -104.5t98 -41.5t98 42t38 104z" />
    <glyph glyph-name="Udblacute" unicode="&#x170;" horiz-adv-x="1513" 
d="M756 -31q-300 0 -461.5 145t-161.5 424v951h374v-929q0 -155 58.5 -231t190.5 -76q129 0 189.5 73t60.5 234v929h374v-950q0 -275 -157.5 -422.5t-466.5 -147.5zM1257 2049l-258 -393h-209l169 393h298zM853 2049l-258 -393h-209l169 393h298z" />
    <glyph glyph-name="udblacute" unicode="&#x171;" horiz-adv-x="1311" 
d="M1177 0h-350v124q-91 -76 -167 -115.5t-181 -39.5q-167 0 -260.5 105.5t-93.5 317.5v731h352v-557q0 -87 4.5 -142t21.5 -93q16 -35 49.5 -53t93.5 -18q37 0 87.5 18t93.5 49v796h350v-1123zM1171 1676l-258 -393h-209l169 393h298zM767 1676l-258 -393h-209l169 393h298
z" />
    <glyph glyph-name="Uogonek" unicode="&#x172;" horiz-adv-x="1513" 
d="M1380 539q0 -213 -90.5 -345.5t-258.5 -185.5q-1 -25 -1.5 -50.5t-0.5 -41.5q0 -65 46.5 -104t123.5 -39q37 0 79.5 10t72.5 24h9v-200q-47 -13 -107.5 -18.5t-95.5 -5.5q-162 0 -252.5 81t-90.5 237q0 14 0.5 32.5t0.5 37.5h-59q-300 0 -461.5 144t-161.5 423v951h374
v-929q0 -155 58.5 -231t190.5 -76q129 0 189.5 73t60.5 234v929h374v-950z" />
    <glyph glyph-name="uogonek" unicode="&#x173;" horiz-adv-x="1311" 
d="M822 15q4 68 5 109q-91 -76 -167 -115.5t-181 -39.5q-167 0 -260.5 105.5t-93.5 317.5v731h352v-557q0 -87 4.5 -142t21.5 -93q16 -35 49.5 -53t93.5 -18q37 0 87.5 18t93.5 49v796h350v-1123h-140q-2 -22 -3 -41.5t-1 -42.5q0 -64 46 -103.5t124 -39.5q37 0 79.5 10
t72.5 24h9v-200q-47 -13 -107.5 -18.5t-95.5 -5.5q-162 0 -252.5 81t-90.5 237q0 46 4 114z" />
    <glyph glyph-name="Wcircumflex" unicode="&#x174;" horiz-adv-x="2105" 
d="M2075 1489l-377 -1489h-410l-239 921l-232 -921h-410l-377 1489h388l205 -999l250 999h371l237 -999l216 999h378zM1480 1656h-259l-165 213l-164 -213h-255l301 393h241z" />
    <glyph glyph-name="wcircumflex" unicode="&#x175;" horiz-adv-x="1822" 
d="M1807 1123l-328 -1123h-372l-197 726l-198 -726h-372l-325 1123h368l172 -743l213 743h309l201 -743l169 743h360zM1345 1283h-259l-165 213l-164 -213h-255l301 393h241z" />
    <glyph glyph-name="Ycircumflex" unicode="&#x176;" horiz-adv-x="1373" 
d="M1392 1489l-514 -867v-622h-374v603l-523 886h426l292 -532l281 532h412zM1113 1656h-259l-165 213l-164 -213h-255l301 393h241z" />
    <glyph glyph-name="ycircumflex" unicode="&#x177;" horiz-adv-x="1179" 
d="M1182 1123l-567 -1535h-376l170 439l-412 1096h368l236 -704l221 704h360zM1011 1283h-259l-165 213l-164 -213h-255l301 393h241z" />
    <glyph glyph-name="Ydieresis" unicode="&#x178;" horiz-adv-x="1373" 
d="M1392 1489l-514 -867v-622h-374v603l-523 886h426l292 -532l281 532h412zM1081 1656h-287v273h287v-273zM600 1656h-287v273h287v-273z" />
    <glyph glyph-name="Zacute" unicode="&#x179;" horiz-adv-x="1275" 
d="M1235 0h-1181v279l685 926h-649v284h1105v-284l-684 -921h724v-284zM1025 2049l-300 -393h-238l207 393h331z" />
    <glyph glyph-name="zacute" unicode="&#x17a;" horiz-adv-x="1077" 
d="M1030 0h-982v231l536 629h-512v263h947v-227l-537 -628h548v-268zM919 1676l-300 -393h-238l207 393h331z" />
    <glyph glyph-name="Zdot" unicode="&#x17b;" horiz-adv-x="1275" 
d="M1235 0h-1181v279l685 926h-649v284h1105v-284l-684 -921h724v-284zM839 1656h-360v273h360v-273z" />
    <glyph glyph-name="zdot" unicode="&#x17c;" horiz-adv-x="1077" 
d="M1030 0h-982v231l536 629h-512v263h947v-227l-537 -628h548v-268zM739 1283h-360v273h360v-273z" />
    <glyph glyph-name="Zcaron" unicode="&#x17d;" horiz-adv-x="1275" 
d="M1235 0h-1181v279l685 926h-649v284h1105v-284l-684 -921h724v-284zM1080 2049l-328 -389h-227l-328 389h259l185 -219l184 219h255z" />
    <glyph glyph-name="zcaron" unicode="&#x17e;" horiz-adv-x="1077" 
d="M1030 0h-982v231l536 629h-512v263h947v-227l-537 -628h548v-268zM993 1676l-328 -389h-227l-328 389h259l185 -219l184 219h255z" />
    <glyph glyph-name="longs" unicode="&#x17f;" horiz-adv-x="660" 
d="M825 1282h-27q-21 6 -62 14.5t-85 8.5q-100 0 -133.5 -46.5t-33.5 -156.5v-1102h-350v1154q0 206 108 309t327 103q76 0 142 -5.5t114 -14.5v-264z" />
    <glyph glyph-name="uni04d8" unicode="&#x18f;" horiz-adv-x="1577" 
d="M1510 744q0 -355 -185 -560q-194 -215 -537 -215q-352 0 -529 210q-112 134 -151 275q-41 151 -41 462l1047 1q-44 230 -197 295q-78 33 -179 33q-134 0 -263 -69q-57 -30 -158 -114h-39v340q98 48 224 82q134 36 286 36q347 0 539 -217q183 -207 183 -559zM1121 613
h-664q6 -42 20 -91q53 -185 182 -244q61 -28 130 -28q150 0 238 117q49 65 75 152q13 42 19 94z" />
    <glyph glyph-name="uni04d8" unicode="&#x4d8;" horiz-adv-x="1577" 
d="M1510 744q0 -355 -185 -560q-194 -215 -537 -215q-352 0 -529 210q-112 134 -151 275q-41 151 -41 462l1047 1q-44 230 -197 295q-78 33 -179 33q-134 0 -263 -69q-57 -30 -158 -114h-39v340q98 48 224 82q134 36 286 36q347 0 539 -217q183 -207 183 -559zM1121 613
h-664q6 -42 20 -91q53 -185 182 -244q61 -28 130 -28q150 0 238 117q49 65 75 152q13 42 19 94z" />
    <glyph glyph-name="florin" unicode="&#x192;" horiz-adv-x="1304" 
d="M1267 1221h-22q-24 9 -69.5 18t-86.5 9q-52 0 -89.5 -14.5t-63.5 -43.5q-24 -28 -35.5 -67.5t-17.5 -78.5l-25 -172h265v-213h-298l-66 -412q-21 -131 -75.5 -220t-127.5 -138t-154.5 -69t-169.5 -20q-45 0 -104 5t-100 13v281h22q27 -10 68 -18.5t88 -8.5
q93 0 142.5 49.5t66.5 164.5l58 373h-159v213h190l33 211q21 137 75.5 222.5t127.5 133.5q72 48 157.5 64.5t165.5 16.5q49 0 100.5 -4.5t103.5 -13.5v-281z" />
    <glyph glyph-name="Ohorn" unicode="&#x1a0;" horiz-adv-x="1723" 
d="M1510 744q0 -361 -193 -568t-529 -207q-337 0 -529 209.5t-192 565.5q0 359 192 567.5t529 208.5q212 0 365 -82t243 -231h43q82 0 116 40.5t34 111.5q0 40 -12 79t-23 63v19h200q10 -34 17 -95.5t7 -97.5q0 -154 -85 -227t-219 -77q18 -63 27 -133t9 -146zM1124 745
q0 133 -27.5 226.5t-73.5 153.5q-48 61 -108.5 87.5t-125.5 26.5q-69 0 -125 -24.5t-108 -87.5q-46 -58 -74.5 -154t-28.5 -229q0 -137 27 -227.5t74 -151.5q48 -62 109 -88.5t126 -26.5q66 0 128 28.5t107 88.5q48 65 74 151.5t26 226.5z" />
    <glyph glyph-name="ohorn" unicode="&#x1a1;" horiz-adv-x="1284" 
d="M1212 561q0 -277 -151.5 -436.5t-428.5 -159.5q-275 0 -427.5 159.5t-152.5 436.5q0 280 152.5 438.5t427.5 158.5q63 0 122.5 -9t108.5 -26h86q82 0 116 40.5t34 111.5q0 40 -12 79t-23 63v19h200q10 -34 17 -95.5t7 -97.5q0 -114 -48.5 -185.5t-144.5 -100.5
q57 -72 87 -173.5t30 -222.5zM853 559q0 100 -16.5 166.5t-45.5 106.5q-31 42 -70 58.5t-89 16.5q-47 0 -85 -14.5t-70 -55.5q-30 -39 -48 -107t-18 -171t17 -166.5t44 -101.5q28 -39 70 -57t93 -18q42 0 85.5 18t69.5 54q31 43 47 103.5t16 167.5z" />
    <glyph glyph-name="Uhorn" unicode="&#x1af;" horiz-adv-x="1613" 
d="M756 -31q-300 0 -461.5 145t-161.5 424v951h374v-929q0 -155 58.5 -231t190.5 -76q129 0 189.5 73t60.5 234v929h375q82 0 116 40.5t34 111.5q0 40 -12 79t-23 63v19h200q10 -34 17 -95.5t7 -97.5q0 -154 -87.5 -229.5t-249.5 -75.5h-3v-765q0 -275 -157.5 -422.5
t-466.5 -147.5z" />
    <glyph glyph-name="uhorn" unicode="&#x1b0;" horiz-adv-x="1461" 
d="M1177 0h-350v124q-91 -76 -167 -115.5t-181 -39.5q-167 0 -260.5 105.5t-93.5 317.5v731h352v-557q0 -87 4.5 -142t21.5 -93q16 -35 49.5 -53t93.5 -18q37 0 87.5 18t93.5 49v796h357q82 0 116 40.5t34 111.5q0 40 -12 79t-23 63v19h200q10 -34 17 -95.5t7 -97.5
q0 -154 -87.5 -229.5t-249.5 -75.5h-9v-938z" />
    <glyph glyph-name="Aringacute" unicode="&#x1fa;" horiz-adv-x="1402" 
d="M1408 0h-385l-93 304h-468l-93 -304h-375l479 1412q-44 41 -71 96t-27 118q0 91 51 164t133 112l200 280h321l-266 -268q94 -32 154.5 -110.5t60.5 -177.5q0 -61 -27 -118t-72 -98zM838 1635q0 63 -38.5 104t-97.5 41t-97.5 -41t-38.5 -104t38 -104.5t98 -41.5t98 42
t38 104zM848 574l-152 491l-152 -491h304z" />
    <glyph glyph-name="aringacute" unicode="&#x1fb;" horiz-adv-x="1226" 
d="M753 293v234q-89 -9 -144 -15.5t-108 -25.5q-46 -16 -71.5 -48.5t-25.5 -86.5q0 -79 42.5 -108.5t125.5 -29.5q46 0 94 21t87 59zM753 119q-36 -30 -64.5 -54t-76.5 -48q-47 -23 -91.5 -35t-124.5 -12q-145 0 -245.5 98.5t-100.5 253.5q0 125 50 202t144 122
q95 46 227 64t284 28v6q0 93 -68.5 128.5t-205.5 35.5q-74 0 -168 -29t-139 -51h-30v271q50 15 131.5 30.5t182.5 22.5q-66 38 -107 106.5t-41 152.5q0 94 48.5 165t125.5 107l203 295h321l-293 -281q92 -28 151.5 -105.5t59.5 -180.5q0 -92 -48 -165t-126 -108
q169 -25 259 -116t90 -258v-764h-348v119zM754 1410q0 62 -38.5 105t-97.5 43t-97.5 -42.5t-38.5 -105.5t38 -104.5t98 -41.5t98 42t38 104z" />
    <glyph glyph-name="AEacute" unicode="&#x1fc;" horiz-adv-x="2025" 
d="M1925 0h-1007v404h-412l-139 -404h-385l550 1489h1393v-284h-635v-261h585v-284h-585v-376h635v-284zM918 684v535h-122l-190 -535h312zM1533 2049l-300 -393h-238l207 393h331z" />
    <glyph glyph-name="aeacute" unicode="&#x1fd;" horiz-adv-x="1919" 
d="M802 310q-20 53 -29 104.5t-11 100.5q-79 -6 -139.5 -12.5t-113.5 -22.5q-48 -15 -76.5 -46t-28.5 -83q0 -71 39.5 -104.5t128.5 -33.5q69 0 131 29t99 68zM1450 223q61 0 120 13.5t108 35.5q43 19 79.5 41t59.5 39h37v-289q-43 -17 -78.5 -31.5t-97.5 -29.5
q-57 -15 -117.5 -23.5t-147.5 -8.5q-209 0 -314.5 39.5t-200.5 134.5q-33 -32 -75.5 -64.5t-92.5 -55.5q-55 -26 -111.5 -40t-137.5 -14q-212 0 -321.5 93t-109.5 259q0 124 51 199.5t143 119.5q91 43 220 61t291 26v16q0 93 -68.5 128.5t-205.5 35.5q-62 0 -145 -22.5
t-162 -57.5h-30v271q52 15 168 35.5t234 20.5q144 0 252 -36t178 -92q66 51 167.5 91t212.5 40q258 0 388 -139t130 -398v-126h-767q5 -78 33 -130.5t74 -83.5q45 -31 105 -44.5t131 -13.5zM1529 706q-3 111 -51.5 169t-148.5 58q-103 0 -160.5 -62t-62.5 -165h423z
M1369 1676l-300 -393h-238l207 393h331z" />
    <glyph glyph-name="Oslashacute" unicode="&#x1fe;" horiz-adv-x="1577" 
d="M1510 744q0 -168 -46.5 -313t-138.5 -247q-96 -106 -231.5 -160.5t-305.5 -54.5q-98 0 -189.5 22t-168.5 63l-119 -180h-207l186 281q-106 102 -164.5 251.5t-58.5 337.5q0 359 192 567.5t529 208.5q97 0 185.5 -20.5t168.5 -61.5l102 154h210l-170 -256
q109 -104 167.5 -253.5t58.5 -338.5zM973 1183q-39 31 -88 46t-96 15q-70 0 -127.5 -25t-109.5 -88q-48 -59 -77 -155.5t-29 -231.5q0 -90 12 -163.5t35 -130.5zM1028 363q48 64 75.5 155t27.5 227q0 82 -13.5 164.5t-35.5 133.5l-482 -734q43 -34 89.5 -49.5t99.5 -15.5
q66 0 130.5 30.5t108.5 88.5zM1096 2049l-300 -393h-238l207 393h331z" />
    <glyph glyph-name="oslashacute" unicode="&#x1ff;" horiz-adv-x="1264" 
d="M1212 561q0 -277 -151.5 -436.5t-428.5 -159.5q-75 0 -145.5 16.5t-126.5 41.5l-121 -185h-174l172 260q-90 77 -137.5 196.5t-47.5 266.5q0 280 152.5 438.5t427.5 158.5q80 0 146.5 -16t125.5 -42l101 153h175l-153 -228q91 -79 138 -192.5t47 -271.5zM755 877
q-26 19 -57 27.5t-66 8.5q-48 0 -86.5 -14.5t-72.5 -56.5q-30 -37 -49 -109.5t-19 -173.5q0 -60 6 -107.5t14 -81.5zM794 283q33 45 49 112.5t16 163.5q0 51 -6 105.5t-14 85.5l-329 -505q26 -18 56 -26.5t69 -8.5q43 0 87 17.5t72 55.5zM977 1676l-300 -393h-238l207 393
h331z" />
    <glyph glyph-name="Scommaaccent" unicode="&#x218;" horiz-adv-x="1297" 
d="M614 -27q-171 0 -300.5 33t-240.5 82v354h34q112 -95 247 -146t262 -51q32 0 84.5 7t84.5 22q39 17 66 47.5t27 80.5q0 56 -44 91t-105 51q-76 20 -162.5 38t-161.5 44q-173 61 -248 164t-75 258q0 209 177 338.5t442 129.5q133 0 264.5 -27t235.5 -73v-340h-33
q-83 71 -202.5 120t-245.5 49q-49 0 -88 -7t-82 -27q-35 -16 -60.5 -47.5t-25.5 -70.5q0 -57 40.5 -90.5t156.5 -60.5q75 -17 144.5 -33t148.5 -44q155 -56 230.5 -150.5t75.5 -249.5q0 -222 -174.5 -357t-471.5 -135zM395 -423l117 279h318l-211 -279h-224z" />
    <glyph glyph-name="scommaaccent" unicode="&#x219;" horiz-adv-x="1054" 
d="M476 -31q-124 0 -234.5 27t-182.5 63v296h29q25 -19 57 -42t89 -48q49 -23 110.5 -39.5t133.5 -16.5q74 0 130.5 23t56.5 73q0 39 -26 59t-101 38q-40 10 -101 21.5t-108 26.5q-132 41 -198.5 121.5t-66.5 211.5q0 75 34.5 141.5t101.5 118.5q67 51 165.5 81t222.5 30
q118 0 217 -23.5t167 -56.5v-284h-28q-18 14 -57 37.5t-76 40.5q-44 20 -98.5 33t-111.5 13q-76 0 -128.5 -26t-52.5 -69q0 -38 26 -60t113 -43q45 -11 103.5 -21.5t112.5 -28.5q121 -39 183.5 -114.5t62.5 -200.5q0 -79 -37 -150.5t-105 -120.5q-72 -53 -169.5 -82
t-233.5 -29zM295 -423l117 279h318l-211 -279h-224z" />
    <glyph glyph-name="uni021A" unicode="&#x21a;" horiz-adv-x="1254" 
d="M440 0v1205h-440v284h1254v-284h-440v-1205h-374zM330 -423l117 279h318l-211 -279h-224z" />
    <glyph glyph-name="uni021B" unicode="&#x21b;" horiz-adv-x="851" 
d="M564 -22q-214 0 -311.5 88t-97.5 288v525h-134v244h134v321h350v-321h337v-244h-337v-398q0 -59 1 -103t16 -79q14 -35 49.5 -55.5t103.5 -20.5q28 0 73.5 12t63.5 22h30v-247q-57 -15 -121 -23.5t-157 -8.5zM195 -423l117 279h318l-211 -279h-224z" />
    <glyph glyph-name="uni04d9" unicode="&#x259;" horiz-adv-x="1216" 
d="M1164 573q0 -280 -160 -441.5t-440 -161.5q-518 0 -518 537v126h767q-9 148 -107 214q-85 58 -236 58q-118 0 -228 -49q-77 -35 -139 -80h-37v289q55 22 176 61q127 32 265 32q303 0 473 -139q184 -150 184 -446zM814 422h-423q6 -227 200 -227q210 0 223 227z" />
    <glyph glyph-name="uni04d9" unicode="&#x4d9;" horiz-adv-x="1216" 
d="M1164 573q0 -280 -160 -441.5t-440 -161.5q-518 0 -518 537v126h767q-9 148 -107 214q-85 58 -236 58q-118 0 -228 -49q-77 -35 -139 -80h-37v289q55 22 176 61q127 32 265 32q303 0 473 -139q184 -150 184 -446zM814 422h-423q6 -227 200 -227q210 0 223 227z" />
    <glyph glyph-name="circumflex" unicode="&#x2c6;" horiz-adv-x="1118" 
d="M981 1283h-259l-165 213l-164 -213h-255l301 393h241z" />
    <glyph glyph-name="caron" unicode="&#x2c7;" horiz-adv-x="1118" 
d="M998 1676l-328 -389h-227l-328 389h259l185 -219l184 219h255z" />
    <glyph glyph-name="macron" unicode="&#x2c9;" horiz-adv-x="1118" 
d="M950 1346h-782v210h782v-210z" />
    <glyph glyph-name="breve" unicode="&#x2d8;" horiz-adv-x="1118" 
d="M929 1636q0 -186 -101.5 -283.5t-267.5 -97.5q-180 0 -275 97.5t-95 283.5h202q0 -46 8.5 -82t28.5 -64q20 -27 51 -42.5t80 -15.5q43 0 76 16t52 42q22 31 30.5 63t8.5 83h202z" />
    <glyph glyph-name="dotaccent" unicode="&#x2d9;" horiz-adv-x="1118" 
d="M739 1283h-360v273h360v-273z" />
    <glyph glyph-name="ring" unicode="&#x2da;" horiz-adv-x="1118" 
d="M865 1421q0 -129 -88.5 -215t-217.5 -86q-128 0 -217 86.5t-89 214.5t89 214.5t217 86.5q129 0 217.5 -86t88.5 -215zM695 1420q0 62 -38.5 105t-97.5 43t-97.5 -42.5t-38.5 -105.5t38 -104.5t98 -41.5t98 42t38 104z" />
    </font>
</defs>
</svg>
